#TITLE:For Your Entertainment (Bimbo Jones Vocal Remix);
#SUBTITLE:;
#ARTIST:ADAM LAMBERT;
#TITLETRANSLIT:;
#SUBTITLETRANSLIT:;
#ARTISTTRANSLIT:;
#CREDIT:Chewi☆;
#BANNER:For Your Entertainment (Bimbo Jones Vocal Remix).png;
#BACKGROUND:For Your Entertainment (Bimbo Jones Vocal Remix)-bg.png;
#LYRICSPATH:;
#CDTITLE:cdtitle.png;
#MUSIC:For Your Entertainment (Bimbo Jones Vocal Remix).mp3;
#OFFSET:-0.543;
#SAMPLESTART:52.205;
#SAMPLELENGTH:15.000;
#SELECTABLE:YES;
#DISPLAYBPM:130.000;
#BPMS:0.000=130.000;
#STOPS:;
#BGCHANGES:;

//---------------dance-single - Chewi----------------
#NOTES:
     dance-single:
     Chewi:
     Beginner:
     1:
     0.071,0.102,0.042,0.021,0.000: // measure 1
0000
0000
0000
0000
,  // measure 2
0000
0000
0000
0000
,  // measure 3
0000
0000
0000
0000
,  // measure 4
0000
0000
0000
0000
,  // measure 5
1000
0000
0000
0000
,  // measure 6
1000
0000
0000
0000
,  // measure 7
0001
0000
0000
0000
,  // measure 8
0001
0000
0000
0000
,  // measure 9
0100
0000
0000
0000
,  // measure 10
0100
0000
0000
0000
,  // measure 11
0010
0000
0000
0000
,  // measure 12
0010
0000
0000
0000
,  // measure 13
1000
0000
0000
0000
,  // measure 14
0010
0000
0000
0000
,  // measure 15
0001
0000
0000
0000
,  // measure 16
0100
0000
0000
0000
,  // measure 17
1000
0000
0000
0000
,  // measure 18
0001
0000
0000
0000
,  // measure 19
0010
0000
0000
0000
,  // measure 20
0100
0000
0000
0000
,  // measure 21
0110
0000
0000
0000
,  // measure 22
0000
0000
0000
0000
,  // measure 23
1001
0000
0000
0000
,  // measure 24
0000
0000
0000
0000
,  // measure 25
0110
0000
0000
0000
,  // measure 26
0000
0000
0000
0000
,  // measure 27
1001
0000
0000
0000
,  // measure 28
0000
0000
0000
0000
,  // measure 29
0001
0000
0000
0000
,  // measure 30
0001
0000
0000
0000
,  // measure 31
0100
0000
0000
0000
,  // measure 32
0100
0000
0000
0000
,  // measure 33
1000
0000
0000
0000
,  // measure 34
0010
0000
0000
0000
,  // measure 35
0010
0000
0000
0000
,  // measure 36
0010
0000
0000
0000
,  // measure 37
0001
0000
0000
0000
,  // measure 38
1000
0000
0000
0000
,  // measure 39
1000
0000
0000
0000
,  // measure 40
0001
0000
0000
0000
,  // measure 41
1000
0000
0000
0000
,  // measure 42
0010
0000
0000
0000
,  // measure 43
0001
0000
0000
0000
,  // measure 44
0010
0000
0000
0000
,  // measure 45
0010
0000
0000
0000
,  // measure 46
0200
0000
0000
0300
,  // measure 47
0100
0000
0000
0000
,  // measure 48
0020
0000
0000
0030
,  // measure 49
0010
0000
0000
0000
;

//---------------dance-single - Chewi----------------
#NOTES:
     dance-single:
     Chewi:
     Easy:
     3:
     0.162,0.204,0.074,0.064,0.000: // measure 1
0000
0000
0000
0000
,  // measure 2
0000
0000
0000
0000
,  // measure 3
0000
0000
0000
0000
,  // measure 4
0000
0000
0000
0000
,  // measure 5
1000
0000
1000
0000
,  // measure 6
1000
0001
1000
0000
,  // measure 7
0001
0000
0001
0000
,  // measure 8
0001
1000
0001
0000
,  // measure 9
0100
0000
0010
0000
,  // measure 10
0100
0010
0100
0000
,  // measure 11
0010
0000
0100
0000
,  // measure 12
0010
0100
0010
0000
,  // measure 13
1000
0000
0100
0000
,  // measure 14
0010
0000
0001
0000
,  // measure 15
0001
0000
0100
0000
,  // measure 16
0100
0000
1000
0000
,  // measure 17
1000
0000
0001
0000
,  // measure 18
0001
0000
1000
0000
,  // measure 19
0010
0000
0100
0000
,  // measure 20
0100
0000
0010
0000
,  // measure 21
0120
0000
0000
0000
,  // measure 22
0000
0000
0000
0030
,  // measure 23
1002
0000
0000
0000
,  // measure 24
0000
0000
0000
0003
,  // measure 25
0210
0000
0000
0000
,  // measure 26
0000
0000
0000
0300
,  // measure 27
2001
0000
0000
0000
,  // measure 28
0000
0000
0000
3000
,  // measure 29
0001
1000
0001
0000
,  // measure 30
0001
0000
0010
0000
,  // measure 31
0100
1000
0100
0000
,  // measure 32
0100
0000
1000
0000
,  // measure 33
1000
0001
1000
0000
,  // measure 34
0010
0000
0100
0000
,  // measure 35
0010
1000
0100
0000
,  // measure 36
0010
0001
0100
0000
,  // measure 37
0001
0001
0001
0000
,  // measure 38
1000
0001
1001
0000
,  // measure 39
1000
1000
1000
0000
,  // measure 40
0001
1000
1001
0000
,  // measure 41
1000
0010
0100
0000
,  // measure 42
0010
0001
0100
0000
,  // measure 43
0001
0010
0100
0000
,  // measure 44
0010
1000
0100
0000
,  // measure 45
0010
0010
0010
0000
,  // measure 46
0200
0000
0300
0000
,  // measure 47
0100
0100
0100
0000
,  // measure 48
0020
0000
0030
0000
,  // measure 49
1001
0000
0000
0000
;

//---------------dance-single - Chewi----------------
#NOTES:
     dance-single:
     Chewi:
     Medium:
     6:
     0.289,0.331,0.159,0.117,0.000: // measure 1
0000
0000
0000
0000
,  // measure 2
0000
0000
0000
0000
,  // measure 3
0000
0000
0000
0000
,  // measure 4
0000
0000
0000
0000
,  // measure 5
1000
0100
1000
1100
,  // measure 6
0001
0010
0001
0011
,  // measure 7
0001
1000
0010
0100
,  // measure 8
0100
0010
1000
0001
,  // measure 9
1000
0100
0001
1001
,  // measure 10
0001
0100
1000
1001
,  // measure 11
0010
0010
0100
0100
,  // measure 12
0100
0100
0010
0010
,  // measure 13
1000
0010
1000
0000
0010
0000
0100
0000
,  // measure 14
0001
0010
0100
1000
,  // measure 15
0001
1000
0100
0000
0010
0000
0100
0000
,  // measure 16
1000
0010
0100
0001
,  // measure 17
0100
0001
0100
0000
0010
0000
0100
0000
,  // measure 18
0001
1000
0100
0010
,  // measure 19
0100
1000
0010
0000
0100
0000
0001
0000
,  // measure 20
0100
0100
0010
0010
,  // measure 21
2002
0000
0000
3000
,  // measure 22
0200
0000
0000
0003
,  // measure 23
0020
0000
0000
0300
,  // measure 24
2000
0000
0000
0030
,  // measure 25
0002
0000
0000
3000
,  // measure 26
0020
0000
0000
0003
,  // measure 27
0200
0000
0000
0030
,  // measure 28
2000
0000
0000
3300
,  // measure 29
0100
0100
1000
1000
,  // measure 30
0001
1001
1000
1001
,  // measure 31
0001
0001
0100
0100
,  // measure 32
0010
1001
0100
1001
,  // measure 33
1000
1000
0010
0100
,  // measure 34
0001
0011
1000
1010
,  // measure 35
0010
0100
0001
1000
,  // measure 36
0001
1000
0001
0000
1000
0001
1000
0000
,  // measure 37
0100
0010
0001
0011
,  // measure 38
0001
1000
0100
0010
,  // measure 39
0100
1000
0001
1001
,  // measure 40
1000
0010
0100
0001
,  // measure 41
0100
0010
0100
0110
,  // measure 42
1000
0100
0001
0010
,  // measure 43
0001
0010
0100
1000
,  // measure 44
0010
1000
0010
0000
0100
0001
0100
0000
,  // measure 45
0002
0010
0100
0013
,  // measure 46
0010
0100
0010
0000
0100
0010
0100
0000
,  // measure 47
2000
0100
0010
3100
,  // measure 48
1000
0100
1000
0000
0001
0100
0001
0000
,  // measure 49
0110
0000
0000
0000
;

//---------------dance-single - Chewi----------------
#NOTES:
     dance-single:
     Chewi:
     Hard:
     10:
     0.432,0.407,0.244,0.064,0.000:
0000
0000
0000
0000
,
0000
0000
0000
0000
,
0000
0000
0000
0000
,
0000
0000
0000
0000
,
1000
0100
1000
0000
0100
0001
0100
0000
,
0001
0010
0001
0000
0010
1000
0010
0000
,
1000
0100
0010
0000
0001
0100
0010
0000
,
1000
1000
1000
0000
0001
0001
0001
0000
,
1000
0100
1100
0000
0001
0010
0001
0000
,
0001
0100
0101
0000
1000
0010
1000
0000
,
0001
1000
0010
0100
0010
0010
0010
0000
,
0100
0010
1000
0001
1000
1000
1000
0000
,
0002
0000
1003
0001
0100
0000
0101
0000
,
0001
1000
0100
1000
0010
1000
0100
0000
,
2000
0000
3001
1000
0100
0000
1100
0000
,
1000
0100
0010
0001
0100
0010
0100
0000
,
0002
0000
0103
0010
1000
0000
1001
0000
,
1000
0100
0010
0100
1000
0010
0100
0001
,
1000
0001
1000
0000
1000
0001
1000
0000
,
0001
0100
0010
1000
0001
0100
0010
1000
,
1002
0000
0100
0000
,
0010
1000
0100
1003
,
2001
0000
0100
0000
,
0001
0100
0010
3001
,
0102
0000
0010
0000
,
1000
1000
0010
0013
,
1000
0100
1000
0000
0001
0100
0001
0000
,
0101
1100
1010
0011
,
0001
0010
0100
0000
1000
0010
0100
0000
,
0001
1000
0001
1000
0010
0100
0010
0100
,
0010
0100
0001
0000
0010
0100
1000
0000
,
0001
1000
0001
1000
0010
0100
0010
0100
,
0010
1000
0100
0000
0010
0001
0100
0000
,
0001
0100
1000
0100
0001
0010
1000
0010
,
1000
0010
0100
0000
0001
0100
0010
1000
,
0001
0101
1100
1000
,
1000
0100
1000
0000
0001
0010
0001
0000
,
1000
0010
0100
0001
1000
0010
0100
0001
,
0010
0001
0010
0000
0100
1000
0100
0000
,
0100
1000
0010
0100
0001
0100
0010
1000
,
0001
1000
0001
0000
1000
0001
1000
0000
,
0001
0100
0010
1000
0001
0010
0100
1000
,
0001
1000
0100
0000
1000
0001
0100
0010
,
1010
0101
0011
1100
,
0001
0001
0001
0000
1000
0100
0010
0000
,
0101
0010
1100
0010
,
1000
1000
1000
0000
0010
0100
0001
0000
,
1000
1001
0001
1001
,
0101
0000
0000
0000
;
