#TITLE:Floating Darkness...;
#SUBTITLE:;
#ARTIST:Tatsh feat. 月子;
#TITLETRANSLIT:;
#SUBTITLETRANSLIT:;
#ARTISTTRANSLIT:Tatsh feat. TSUKIKO;
#GENRE:;
#CREDIT:Chewi☆;
#MENUCOLOR:#FFFFFF;
#METERTYPE:DDR X;
#BANNER:Floating Darkness.png;
#BACKGROUND:Floating Darkness-bg.png;
#LYRICSPATH:;
#CDTITLE:./CDTITLES/DanceDanceRevolution skyMIX2 -FREEDOM-.png;
#MUSIC:Floating Darkness.mp3;
#OFFSET:-5.307;
#SAMPLESTART:74.496;
#SAMPLELENGTH:15.000;
#SELECTABLE:YES;
#LISTSORT:;
#DISPLAYBPM:91.000:364.000;
#BPMS:0.000=182.000,270.000=364.000,510.000=91.000;
#STOPS:108.000=0.989
,205.000=0.330
;
#BGCHANGES:-20.000=X2_Queen-Zukin.avi=1.000=0=0=1,
99999=-nosongbg-=1.000=0=0=0 // don't automatically add -songbackground-
;
#ATTACKS:;

//---------------dance-single - Chewi----------------
#NOTES:
     dance-single:
     Chewi:
     Beginner:
     4:
     0.245,0.369,0.050,0.043,0.000:
0000
0000
0000
0000
,
0000
0000
0000
0000
,
0000
0000
0000
0000
,
0000
0000
0000
0000
,
2000
0000
0000
3000
,
0200
0000
0000
0300
,
0002
0000
0000
0003
,
0020
0000
0000
0030
,
0010
0010
0010
0000
,
0100
0100
0100
0000
,
1000
1000
1000
0000
,
0001
0001
0001
0000
,
1000
0000
0100
0000
,
0010
0000
0001
0000
,
1000
0000
0100
0000
,
0010
0000
0001
0000
,
0001
0000
0100
0000
,
0010
0000
1000
0000
,
0001
0000
0100
0000
,
0010
0000
1000
0000
,
0001
0000
1000
0000
,
0010
0000
0100
0000
,
0001
0000
1000
0000
,
0100
0000
0010
0000
,
0001
0001
0001
0000
,
0010
0010
0010
0000
,
1000
1000
1000
0000
,
0110
0100
0100
0100
,
0000
0010
0010
0010
,
0000
1000
1000
1000
,
0000
0001
0001
0001
,
0000
1000
1000
1000
,
0000
0100
0100
0100
,
0000
0010
0010
0010
,
0000
0001
0001
0001
,
0000
0001
0000
0010
,
0000
0100
0000
1000
,
0000
0001
0000
0010
,
0000
0100
0100
0100
,
0000
1000
0000
0010
,
0000
0100
0000
0001
,
0000
1000
0000
0010
,
0000
0100
0100
0100
,
0000
0001
0000
1000
,
0000
0100
0000
0010
,
0000
0001
0000
0010
,
0000
0100
0100
0100
,
0000
0010
0000
0001
,
0000
1000
0000
0010
,
0000
0100
0000
0010
,
0000
0100
0100
0100
,
0000
0110
1000
0000
,
1000
0001
1000
0000
,
0001
1000
0001
0000
,
0001
0000
1000
0000
,
0010
0000
0100
0000
,
0100
0010
0100
0000
,
0010
0100
0010
0000
,
1000
0000
0100
0000
,
0001
0000
0010
0000
,
0100
0010
0100
0000
,
0001
1000
0001
0000
,
1000
0000
0010
0000
,
0001
0000
0100
0010
,
0100
0000
0010
0100
,
0010
0000
1000
0000
,
0001
0000
1001
0000
,
0110
0000
0010
0000
,
0000
0000
1000
0000
,
0000
0000
0010
0000
,
0000
0000
0001
0000
,
0000
0000
0010
0000
,
0000
0000
1000
0000
,
0000
0000
0001
0000
,
0001
0000
0001
0000
,
0000
0000
1000
0000
,
0000
0000
0100
0000
,
0000
0000
1000
0000
,
0000
0000
0010
0000
,
0000
0000
0010
0000
,
0010
0000
0010
0000
,
0000
0000
0100
0000
,
0100
0000
0100
0000
,
0000
0000
1001
0000
,
0000
0000
1000
0000
,
0000
0000
0001
0000
,
0000
0000
1000
0000
,
0000
0000
0110
0000
,
0000
0000
0010
0000
,
0000
0000
0100
0000
,
0000
0000
0010
0000
,
0000
0000
1000
0000
,
1000
0000
1000
0000
,
0000
0000
0001
0000
,
0001
0000
0001
0000
,
0000
0000
1000
0000
,
0000
0000
0100
0000
,
0000
0000
0010
0000
,
0000
0000
0001
0000
,
0000
0000
0001
0000
,
1000
0000
0001
0000
,
0000
0000
0100
0000
,
0010
0000
0100
0000
,
0000
0000
0010
0000
,
1000
0000
0010
0000
,
0000
0000
1000
0000
,
0000
0000
0001
0000
,
0000
0000
1000
0000
,
0100
0000
1000
0000
,
0000
0000
0001
0000
,
0010
0000
0001
0000
,
0000
0000
0001
0000
,
1000
0000
0001
0000
,
0000
0000
1000
0000
,
0010
0000
1000
0000
,
0000
0000
0010
0000
,
0000
0000
0100
0000
,
0000
0000
0010
0000
,
0100
0000
0010
0000
,
0000
0000
0100
0000
,
0010
0000
0100
0000
,
0000
0000
0001
0000
,
1000
0000
0001
0000
,
0000
0000
0001
0000
,
0000
0000
1000
0000
,
0000
0000
0010
0000
,
0000
0000
0100
0000
,
0000
0000
0220
0000
,
0000
0000
0000
0000
,
0330
0000
0000
0000
;

//---------------dance-single - Chewi----------------
#NOTES:
     dance-single:
     Chewi:
     Easy:
     8:
     0.443,0.600,0.165,0.100,0.000:
0000
0000
0000
0000
,
0000
0000
0000
0000
,
0000
0000
0000
0000
,
0000
0000
0000
0000
,
2000
0000
3200
0000
,
0320
0000
0032
0000
,
0203
0000
0320
0000
,
2030
0000
3002
0000
,
0013
0100
0010
0100
,
1000
0001
1000
0001
,
1000
1000
1000
0000
0001
0001
0001
0000
,
0001
0100
1000
0010
,
0100
0110
0010
0110
,
0001
1001
1000
1001
,
0001
1000
0010
0100
,
0001
0000
0100
1000
0010
0000
0000
0000
,
0100
0010
0001
0100
,
0010
1000
0100
0010
,
0001
1000
0100
0010
,
0001
1000
0100
0000
1000
0000
0000
0000
,
1000
0001
0100
0010
,
1000
0001
0010
0100
,
1000
0001
0010
0100
,
1000
0001
0010
0000
0100
0000
0000
0000
,
1000
0001
0100
1000
,
0001
0100
1000
0010
,
0100
0001
0100
0010
,
1010
0100
0001
0100
,
0001
0010
0001
0010
,
0001
0010
0100
0010
,
0100
1000
0001
1000
,
0001
2000
0100
0001
,
3010
0002
0100
1000
,
0013
0000
0010
0000
0100
0000
0010
0100
,
0010
0000
0100
0000
0010
0000
0100
0010
,
0100
1001
0000
0100
,
0100
0110
1000
0100
,
0001
0100
1000
0010
,
0001
0000
0100
0000
0100
0000
0100
0010
,
0100
0010
0001
0100
,
0010
1000
0100
0010
,
0001
1000
0100
0010
,
0001
0000
1000
0100
1000
0000
0001
0000
,
0100
0010
0101
0010
,
1100
0001
1000
0001
,
0010
0001
1000
0001
,
0010
0100
1000
0010
,
0001
0100
0010
0100
,
0001
0100
0010
0100
,
1000
0000
0001
1000
0100
0000
1000
0001
,
0100
0010
0100
0010
,
1001
0110
0001
0010
,
0100
1000
0100
0000
1000
0000
0100
0000
,
0010
0001
0010
0000
0001
0000
1000
0000
,
0010
0001
0100
1000
,
0010
0001
0100
0010
,
0001
0100
0001
0000
0010
0000
0100
0000
,
1000
0010
1000
0000
0100
0000
0010
0000
,
0001
1000
0010
0001
,
0100
1000
0010
0100
,
0010
0100
0010
0000
1000
0000
0001
0000
,
1000
0001
1000
0000
0001
0000
0010
0000
,
0100
0001
1000
0100
,
0001
1000
0100
0010
,
0001
0010
0100
1000
,
0001
0100
0010
1000
,
0001
0010
0100
0100
,
0010
0100
0010
0000
0011
0000
0000
0000
,
1000
0000
0100
0000
,
1000
0000
0001
0000
,
0100
0000
1000
0000
,
0100
0000
0011
0000
,
0100
0000
1000
0000
,
0001
0000
0010
0000
,
1000
0000
0010
0000
,
0001
0000
1000
0000
,
0001
0000
0110
0000
,
1000
0000
0001
0000
,
0010
0000
0100
0000
,
0110
0000
0010
0000
,
0001
0000
0100
0000
,
0001
0000
0010
0000
,
1000
0000
0100
0000
,
1000
0000
0010
0000
,
0100
0000
1000
0000
,
0001
0000
0100
0000
,
0010
0000
1000
0000
,
0001
0000
1000
0000
,
0100
0000
0010
0000
,
0001
0000
1000
0000
,
0010
0000
0100
0000
,
0001
0000
0100
0010
,
0100
0000
0010
0100
,
0010
0000
1000
0001
,
1000
0000
0001
1000
,
0001
0000
1000
0000
,
0100
0000
0010
0001
,
0100
0000
0010
0000
,
0100
0000
0010
1000
,
0100
0000
1001
0000
,
0010
0000
0100
0010
,
0100
0000
0010
0000
,
0100
0000
0010
0100
,
0010
0000
0001
0000
,
0100
0000
1000
0000
,
0010
0000
0001
0000
,
0010
0000
1000
0000
,
0100
0000
0001
0100
,
0001
0000
1000
0000
,
1000
0000
0001
0010
,
0001
0000
1000
0000
,
0010
0000
0100
0000
,
0001
0000
0100
0000
,
0010
0000
1000
0000
,
1001
0000
0001
0000
,
1001
0000
1000
0000
,
0100
0000
0001
0010
,
1000
0000
0010
0000
,
0001
0000
0100
0010
,
1000
0000
0001
0000
,
0100
0000
0010
0000
,
1000
0000
0001
0000
,
1000
0000
0100
0000
,
0010
0000
0001
0000
,
1100
0000
1000
0000
,
0101
0000
0100
0000
,
0110
0000
1000
0000
,
1001
0000
0000
0000
2002
0000
0000
3000
,
0013
0010
0020
0200
0000
0000
0000
0000
,
0330
0000
0000
0000
;

//---------------dance-single - Chewi----------------
#NOTES:
     dance-single:
     Chewi:
     Medium:
     12:
     0.534,0.784,0.386,0.100,0.007:
0000
0000
0000
0000
,
0000
0000
0000
0000
,
0000
0000
0000
0000
,
0000
0000
0000
0000
,
2002
3003
0220
0330
,
2020
3030
0202
0303
,
2000
0000
3200
0000
,
0002
0300
0000
0000
0023
0000
0000
0000
,
1030
0000
0001
0000
0010
0100
0010
0000
,
0001
0000
1000
0000
0010
0100
0010
0000
,
0100
0101
0100
1100
,
0010
0110
1000
1001
,
0001
1000
0010
0000
1000
0000
0001
0000
,
1000
0001
0010
0000
0100
0000
0010
0000
,
0001
0100
1000
0010
,
0100
0010
0100
0010
0100
0000
0110
0000
,
0001
0010
0100
0000
1000
0000
0100
0000
,
1000
0100
0010
0000
0001
0000
0010
0000
,
0100
0010
0100
0000
0010
0100
0010
0000
,
0110
1001
0110
0000
,
0100
0010
1000
0000
0100
0000
0010
0000
,
0100
0010
0001
0000
1000
0000
0001
0000
,
1000
0001
0100
0000
0001
0000
1000
0000
,
0001
1000
0100
0000
0110
0000
0000
0000
,
0010
0001
0100
0000
0001
0000
0010
0000
,
0100
1000
0010
0000
1000
0000
0100
0000
,
0010
0000
0001
0000
1000
0010
0100
0001
,
0100
0000
0010
0000
1000
0000
0010
1000
,
0010
0000
1000
0000
0001
0000
1000
0001
,
1000
0000
0001
0000
0010
0000
0001
0010
,
0001
0000
0010
0100
1000
0000
1000
0100
,
0010
0000
0001
0000
0010
0000
0001
0010
,
0001
0000
1000
0000
0010
0000
1000
0010
,
1000
0000
0001
0000
1000
0000
0001
1000
,
0010
0000
1000
0001
0010
0000
0001
1000
,
0100
1001
0100
1001
,
0010
0110
0011
0100
,
1000
0010
0001
0100
,
1000
0000
0001
1000
0100
1000
0001
0000
,
1100
1000
1001
0100
,
0110
1000
1001
0010
,
0110
0011
0101
0011
,
0110
0000
0001
1000
0100
1000
0001
0000
,
1100
0000
1000
0001
1000
0000
0010
0000
,
0100
0000
0010
0100
0010
0000
0100
0000
,
0001
0000
0010
0100
1000
0000
0100
0010
,
0001
0010
0110
1001
,
0110
0000
0100
0001
0100
0000
0010
0000
,
1000
0000
0100
1000
0010
0000
1000
0000
,
0100
0010
0100
1001
,
0110
1010
0101
1100
,
0011
0110
0001
0010
,
0100
1000
0100
0000
0010
0000
0001
0000
,
0100
0001
0100
0000
0010
0000
0100
0000
,
0001
0100
0001
0000
1000
0100
1000
0100
,
0010
0001
0010
0000
0100
0000
0010
0000
,
0001
0010
0100
0000
1000
0000
0010
0000
,
1000
0010
0100
0000
0010
0000
0100
0000
,
0001
1000
0001
0000
1000
0100
1000
0100
,
0010
0001
0010
0000
0001
0000
0100
0000
,
0010
0100
0001
0000
0100
0000
0010
0000
,
0100
0010
1000
0000
0001
0000
1000
0000
,
0100
0010
0001
0000
0010
0100
0010
0100
,
1000
0001
1000
0001
1000
0000
0100
0000
,
0010
0001
0010
0000
0100
0000
1000
0000
,
0001
0100
0001
0000
0100
0000
0010
0000
,
1000
0001
1000
0000
0010
0000
0101
0000
,
0010
1100
0001
0010
,
0100
1000
0001
1000
,
0010
0000
1000
0100
,
0010
0001
1000
0100
,
0010
0000
0001
0000
,
1100
0000
1000
0000
,
0101
0000
0110
0000
,
1001
0000
0110
0000
,
1001
0000
1000
0100
,
0010
0100
1000
0000
,
0001
0000
0100
0001
,
0100
0010
0100
0000
,
0001
0000
0010
0100
,
0010
0000
0001
1000
,
0001
0000
1000
0000
,
0010
0000
0001
0000
,
0100
0000
1000
0000
,
0001
0000
1000
0100
,
1000
0000
0001
0000
,
1000
0000
0001
0100
,
0001
0000
0100
0010
,
1000
0000
0001
0010
,
0100
0000
1000
0000
,
0001
0000
0010
0000
,
0100
0000
1000
0000
,
1100
0000
0001
0000
,
0101
0000
0100
0000
,
0010
0000
1000
0000
,
0100
0000
0001
0000
,
0010
0000
0100
0000
,
0001
0000
0010
0000
,
0100
0000
1000
0000
,
0001
0000
1100
0000
,
0010
0000
0101
0000
,
0010
0000
0100
0010
,
0100
0000
0010
0100
,
0010
0000
1000
0000
,
0100
0000
0001
0000
,
0010
0000
1000
0000
,
0100
0000
1000
0000
,
0010
0000
0001
0000
,
0100
0000
1000
0000
,
0010
0000
0001
0000
,
0100
0000
1000
0000
,
0010
0000
0100
0000
,
1000
0000
0010
0000
,
0001
0000
0100
0000
,
0100
0000
0010
0000
,
0010
0000
1010
0000
,
0101
0000
0010
0000
,
0100
0000
0011
0000
,
1100
0000
0001
0000
,
1000
0000
1100
0000
,
0010
0000
0001
0000
,
0010
0000
0100
0000
,
1000
0000
0100
0000
,
1000
0000
0001
0000
,
1000
0000
0010
0100
,
0010
0000
0100
0000
,
0001
0000
0100
0010
,
1000
0000
0000
0000
0001
0000
0000
0000
1000
0000
0010
0000
0100
0000
0001
0010
,
1000
0000
1000
0100
0002
0000
0020
0000
0000
0000
0000
0000
0000
0000
0000
0000
,
0033
0000
0000
0000
;

//---------------dance-single - Chewi----------------
#NOTES:
     dance-single:
     Chewi:
     Hard:
     14:
     0.705,0.830,0.093,0.122,0.086: // measure 1
0000
0000
0000
0000
,  // measure 2
0000
0000
0000
0000
,  // measure 3
0000
0000
0000
0000
,  // measure 4
0000
0000
0000
0000
,  // measure 5
2000
0000
3200
0000
,  // measure 6
0302
0000
0023
0000
,  // measure 7
2030
0000
3002
0000
,  // measure 8
2003
0000
3002
0000
,  // measure 9
0203
0000
2300
0000
,  // measure 10
3020
0000
0032
0000
,  // measure 11
0203
0000
2300
0000
,  // measure 12
3200
0000
2300
0000
,  // measure 13
3001
1000
0010
1000
0001
0010
0100
0000
,  // measure 14
1000
0100
1000
0010
1000
0100
0010
0000
,  // measure 15
0001
0100
0010
0100
0001
0010
0100
1000
,  // measure 16
0001
0100
0010
1000
0001
0000
1001
0000
,  // measure 17
0001
0010
0100
1000
0010
0100
0001
0000
,  // measure 18
0100
0010
1000
0001
0010
0100
1000
0000
,  // measure 19
0010
1000
0100
0010
0001
0100
0010
0100
,  // measure 20
0001
1000
0001
0010
0100
0010
0100
0000
,  // measure 21
0010
0001
0100
0010
1000
0100
0010
0000
,  // measure 22
0100
1000
0010
0100
0001
0010
0100
0000
,  // measure 23
0010
0001
1000
0010
0100
0001
0100
0010
,  // measure 24
1000
0001
0010
0100
1000
0001
1001
0000
,  // measure 25
1000
0010
1000
0010
0100
0010
0100
0010
,  // measure 26
0100
0001
0100
0001
0010
0001
0010
0001
,  // measure 27
0010
0100
1000
0010
0100
0001
0100
0010
,  // measure 28
1000
0000
0001
0010
0100
1000
0001
0010
,  // measure 29
0100
1000
0010
0100
0001
1000
0010
0100
,  // measure 30
0001
1000
0010
1000
0010
1000
0100
1000
,  // measure 31
0100
1000
0100
0010
0001
1000
0100
0010
,  // measure 32
0001
1000
0010
0100
0001
0100
0010
0100
,  // measure 33
0001
0100
0010
0001
0010
0100
1000
0001
,  // measure 34
0010
0100
1000
0010
0100
0001
0100
0010
,  // measure 35
1000
0001
0010
0100
1000
0001
1000
0001
,  // measure 36
1000
0001
1001
0000
1010
0000
0101
0000
,  // measure 37
0011
0000
0001
0010
0100
1000
0010
0100
,  // measure 38
0001
0100
1010
0000
0011
0000
1100
0000
,  // measure 39
0101
0000
0001
0100
1000
0100
0001
0010
,  // measure 40
1000
0010
0001
0010
0100
1000
0001
0010
,  // measure 41
0100
0000
1000
0010
0100
0001
1000
0010
,  // measure 42
0100
0000
0001
1000
0100
0010
0001
1000
,  // measure 43
0010
0100
0001
0100
1000
0010
0001
0010
,  // measure 44
1000
0100
0010
0001
0010
0000
0100
1000
,  // measure 45
0010
0100
0001
0100
0001
0000
0100
0010
,  // measure 46
1000
0001
0010
0100
1000
0010
0100
0001
,  // measure 47
0010
0100
1000
0001
1000
0010
0100
0001
,  // measure 48
0011
0000
0001
0010
0100
1000
0010
0100
,  // measure 49
0001
0000
1000
0010
0100
0001
1000
0100
,  // measure 50
0010
0000
0001
1000
0010
0100
0001
1000
,  // measure 51
0100
0010
0001
0010
0100
1000
0010
0100
,  // measure 52
0001
0100
0010
0000
0010
0000
1000
0000
,  // measure 53
0100
0000
0000
0010
0000
0000
0001
0000
0010
0000
0100
0000
1000
0000
0010
0000
,  // measure 54
0100
0000
0000
0001
0000
0000
0100
0000
0010
0000
1000
0000
0001
0000
0010
0000
,  // measure 55
0100
0000
1000
0000
0001
0000
1000
0000
0010
1000
0000
0000
0001
0100
0000
0000
,  // measure 56
0001
0010
0000
0000
0100
1000
0000
0000
0001
0000
0010
0000
0100
0000
1000
0000
,  // measure 57
0001
0000
0000
0001
0000
0000
0001
0000
0100
0000
0010
0000
1000
0000
0001
0000
,  // measure 58
0010
0000
0000
0010
0000
0000
0010
0000
0001
0000
0010
0000
0100
0000
1000
0000
,  // measure 59
0001
0000
0000
0001
0000
0000
0001
0000
1000
0100
0000
0000
0100
1000
0000
0000
,  // measure 60
1000
0001
0000
0000
0001
1000
0000
0000
1000
0000
0010
0000
0100
0000
0001
0000
,  // measure 61
0100
0000
0000
0100
0000
0000
0100
0000
0001
0000
0100
0000
0010
0000
1000
0000
,  // measure 62
0001
0000
0000
0010
0000
0000
0001
0000
0010
0000
0001
0000
0010
0000
0100
0000
,  // measure 63
1000
0010
0100
0001
0100
0010
1000
0001
,  // measure 64
0010
0100
1000
0001
1000
0000
0100
0000
,  // measure 65
0010
0000
0000
0001
0000
0000
0100
0000
0010
0000
0100
0000
0001
0000
0010
0000
,  // measure 66
0100
0000
0000
1000
0000
0000
0010
0000
1000
0000
0100
0000
1000
0000
0100
0000
,  // measure 67
0001
0100
0001
0100
0010
0100
0001
0010
,  // measure 68
0100
1000
0010
0100
0001
0000
0010
0000
,  // measure 69
0100
1000
0010
1000
,  // measure 70
0100
0000
1000
0100
,  // measure 71
0010
0001
1000
0100
,  // measure 72
0010
0000
0001
0100
,  // measure 73
1000
0010
0001
0010
,  // measure 74
1000
0100
0010
0100
,  // measure 75
0010
0100
0001
1000
,  // measure 76
0001
1000
0010
0100
,  // measure 77
0001
0000
0100
0010
,  // measure 78
1000
0001
0010
0100
,  // measure 79
1000
0000
1000
0100
,  // measure 80
0010
0001
1000
0001
,  // measure 81
1000
0001
0100
0010
,  // measure 82
0100
0010
1000
0100
,  // measure 83
0010
0001
1000
0100
,  // measure 84
0010
0001
1000
0100
,  // measure 85
1000
0100
0010
0001
,  // measure 86
0010
0000
0001
0010
,  // measure 87
0001
0010
0100
1000
,  // measure 88
0100
0000
0001
0100
,  // measure 89
0010
1000
0001
0100
,  // measure 90
0010
1000
0001
1000
,  // measure 91
0001
1000
0100
0010
,  // measure 92
0100
0010
0001
0010
,  // measure 93
0100
1000
0001
0010
,  // measure 94
0100
1000
0001
0100
,  // measure 95
0010
1000
0001
0100
,  // measure 96
0010
1000
0001
1000
,  // measure 97
0001
1000
0010
0100
,  // measure 98
0010
0100
0010
1000
,  // measure 99
0100
0010
0001
0100
,  // measure 100
0010
0100
1001
0000
,  // measure 101
0010
0000
0100
1000
,  // measure 102
0010
0100
0001
0010
,  // measure 103
0100
1000
0010
0100
,  // measure 104
0001
0010
0101
0000
,  // measure 105
0100
0000
0010
1000
,  // measure 106
0100
0010
0001
0010
,  // measure 107
0100
1000
0010
0100
,  // measure 108
0001
0100
0010
1000
,  // measure 109
0100
0000
0010
0000
,  // measure 110
0100
0000
0010
0001
,  // measure 111
0100
0000
0010
0000
,  // measure 112
0100
0000
0001
0010
,  // measure 113
0100
1000
0001
0010
,  // measure 114
0100
1000
0001
0100
,  // measure 115
0010
1000
0001
0100
,  // measure 116
0010
1000
0001
1000
,  // measure 117
0001
1000
0010
0100
,  // measure 118
0010
0100
0010
1000
,  // measure 119
0010
1000
0001
0100
,  // measure 120
0001
0100
1000
0010
,  // measure 121
1000
0001
0010
0100
,  // measure 122
1000
0001
1000
0100
,  // measure 123
0010
0001
1000
0100
,  // measure 124
0010
0001
1000
0001
,  // measure 125
0100
0010
1000
0001
,  // measure 126
0010
0100
1000
0001
,  // measure 127
1000
0010
0100
0001
,  // measure 128
0100
0000
0000
0000
0010
0000
0000
0000
1000
0010
0100
0001
0010
1000
0100
0001
,  // measure 129
0010
0100
1000
0100
0001
0010
0200
0000
0000
0000
0000
0000
0000
0000
0000
0000
,  // measure 130
0310
0000
0000
0000
;
