#VERSION:0.83;
#TITLE:Flip Flap;
#SUBTITLE:;
#ARTIST:kors k;
#TITLETRANSLIT:Flip Flap;
#SUBTITLETRANSLIT:;
#ARTISTTRANSLIT:;
#GENRE:Electronic;
#ORIGIN:;
#CREDIT:chewi;
#BANNER:Flip Flap.png;
#BACKGROUND:Flip Flap-bg.png;
#PREVIEWVID:;
#JACKET:Flip Flap-jacket.png;
#CDIMAGE:;
#DISCIMAGE:;
#LYRICSPATH:;
#CDTITLE:cdtitle.png;
#MUSIC:Flip Flap.ogg;
#OFFSET:-0.473000;
#SAMPLESTART:22.415001;
#SAMPLELENGTH:15.000000;
#SELECTABLE:YES;
#DISPLAYBPM:175.000000;
#BPMS:0.000=175.000,
242.000=87.500,
243.000=175.000,
245.000=87.500,
246.000=175.000;
#STOPS:;
#DELAYS:;
#WARPS:;
#TIMESIGNATURES:0.000=4=4;
#TICKCOUNTS:0.000=4;
#COMBOS:0.000=1;
#SPEEDS:0.000=1.000=0.000=0;
#SCROLLS:0.000=1.000;
#FAKES:;
#LABELS:0.000=Song Start;
#BGCHANGES:;
#KEYSOUNDS:;
#ATTACKS:
;

//---------------dance-single - ----------------
#NOTEDATA:;
#CHARTNAME:;
#STEPSTYPE:dance-single;
#DESCRIPTION:;
#CHARTSTYLE:;
#DIFFICULTY:Hard;
#METER:13;
#RADARVALUES:0.533906,0.599349,0.340552,0.209570,0.541390,428.000000,389.000000,39.000000,24.000000,0.000000,0.000000,0.000000,0.000000,0.000000,0.533906,0.599349,0.340552,0.209570,0.541390,428.000000,389.000000,39.000000,24.000000,0.000000,0.000000,0.000000,0.000000,0.000000;
#CREDIT:;
#DISPLAYBPM:128.000000;
#NOTES:
0000
0000
0000
0000
,
0000
0000
0000
0000
,
0000
0000
0000
0000
,
0000
0000
0000
0000
,
0000
0000
0000
0000
,
0000
0000
0000
0000
,
0000
0000
0000
0000
,
0000
0000
0000
0000
,
2000
3100
0000
0100
,
0020
0031
0000
0001
,
0002
0103
0000
0100
,
0020
1030
0000
1000
,
0002
0013
0020
0130
,
0200
1300
2000
3001
,
0001
0000
0001
0010
0000
0010
0100
0000
0100
1000
0000
0000
,
1001
1001
1001
1001
,
2000
0000
0000
3002
0000
0000
1003
0100
0010
0001
0000
0010
,
0001
0000
0000
1100
0000
0000
0101
0000
0000
0100
0000
0100
,
0010
0000
0000
1000
0000
1000
0001
0000
0000
0010
0000
0010
,
0100
0000
0000
1000
0000
1000
0001
0000
0000
0001
0000
0000
,
2000
0000
0000
3002
0000
0000
1003
0010
0100
0001
0000
0100
,
0001
0000
0000
1100
0000
0000
0101
0000
0000
0100
0000
0100
,
0010
0000
0000
1000
0000
1000
0001
0000
0000
0010
0000
0010
,
0100
0000
0000
1000
0000
1000
0001
0000
0000
0001
0000
0000
,
1000
0000
0000
0001
1000
0001
1000
0000
0000
1001
0000
0000
,
0100
0000
0000
0010
0100
0010
0100
0000
0000
0110
0000
0000
,
0010
0000
0001
0010
0000
0001
0100
0000
0001
1000
0000
1000
,
0001
0000
1000
0010
0000
1000
0100
0000
1000
0001
0000
0000
,
0001
0000
0000
1000
0100
1000
0100
0000
0000
1100
0000
0000
,
1000
0000
0000
0001
0010
0001
0010
0000
0000
0011
0000
0000
,
0001
0000
1000
0010
0000
1000
0100
0000
1000
0001
0000
0001
,
1000
0000
0001
0100
0000
0001
0010
0000
0001
1000
0000
0000
,
0001
0000
0001
0010
0000
0010
0100
0000
0100
1000
0000
1000
,
0001
0000
0001
0010
0000
0010
0100
0000
0100
1000
0000
1000
,
0010
0000
0010
1000
0000
1000
0001
0000
0001
0100
0000
0100
,
0010
0000
0010
1000
0000
1000
0001
0000
0001
0100
0000
0100
,
0010
0000
0010
1000
0000
1000
0100
0000
0100
0010
0000
0010
,
0001
0000
0001
0100
0000
0100
0010
0000
0010
1000
0000
1000
,
0010
0000
0010
1000
0000
1000
0100
0000
0100
0010
0000
0010
,
0001
0000
0001
0100
0000
0100
0010
0000
0010
1000
0000
0000
,
1000
0000
1000
0001
0000
0000
0010
0000
0000
0100
0000
0000
,
1000
0000
1000
0001
0000
0000
0101
0000
0000
1010
0000
0000
,
0001
0000
0001
0100
0000
0000
0010
0000
0000
0100
0000
0000
,
0001
0000
0001
0010
0000
0000
0011
0000
0000
1100
0000
0000
,
1000
0000
1000
0100
0000
0000
1000
0000
0000
0001
0000
0000
,
0010
0000
0010
0001
0000
0000
0011
0000
0000
1100
0000
0000
,
0001
0000
0001
1000
0000
0000
1000
0000
0000
0010
0000
0000
,
0100
0000
0100
0001
0000
0000
0101
0000
0000
1100
0000
0000
,
0100
0000
0000
0010
0000
0000
0001
0000
0001
0000
0000
0000
,
0001
0000
0000
0100
0000
0010
1000
0000
0000
1001
0000
0000
,
1000
0000
0000
0100
0000
0000
0010
0000
0010
0000
0000
0000
,
0001
0000
0000
0010
0000
0100
1000
0000
0000
1001
0000
0000
,
2002
0000
0000
0000
,
0000
0000
0000
0000
,
0000
0000
0000
0000
,
0000
0000
3003
0000
,
2000
0000
0000
3002
0000
0000
1003
0100
0010
0001
0000
0010
,
0001
0000
0000
1001
0000
0000
0101
0000
0000
0100
0000
0100
,
0010
0000
0000
1000
0000
1000
0001
0000
0000
0010
0000
0010
,
0100
0000
0000
1000
0000
1000
0100
0000
0000
0101
0000
0000
,
1000
0010
0200
0301
,
0010
0200
1300
0100
,
0010
0001
1001
1001
,
1001
1001
0002
2003
,
3001
0010
0100
1000
0000
0100
1000
0000
0000
0011
0000
0000
,
1010
0000
0000
0010
0000
0010
0100
0000
0000
0001
0000
0001
,
1000
0000
0000
0100
0000
0100
0010
0000
0000
0001
0000
0001
,
1000
1000
0002
2003
,
3001
0100
0010
1000
0000
0010
1000
0000
0000
0011
0000
0000
,
1010
0000
0000
0010
0000
0010
0100
0000
0000
0001
0000
0001
,
1000
0000
0000
0100
0000
0100
0010
0000
0000
0001
0000
0001
,
1000
0000
0000
1000
0000
0000
0001
0000
0000
1000
0001
1000
,
0001
0000
0000
1001
0000
0000
0010
0000
0000
0100
0010
0100
,
0010
0000
0000
0110
0000
0000
0100
0000
1000
0100
0000
1000
,
0010
0000
1000
0001
0000
0001
1000
0000
0001
0100
0000
0001
,
0010
0000
0001
1000
0000
0000
1000
0000
0000
0001
0010
0001
,
0010
0000
0000
0011
0000
0000
0001
0000
0000
1000
0100
1000
,
0100
0000
0000
1100
0000
0000
1000
0000
1000
0001
0000
0001
,
0010
0000
0010
0100
0000
0100
1000
0000
1000
0001
0000
0001
,
0100
0000
2002
0000
,
0000
0000
0000
3003
;

//---------------dance-single - ----------------
#NOTEDATA:;
#CHARTNAME:;
#STEPSTYPE:dance-single;
#DESCRIPTION:;
#CHARTSTYLE:;
#DIFFICULTY:Medium;
#METER:8;
#RADARVALUES:0.411656,0.528838,0.384212,0.139714,0.161544,330.000000,286.000000,44.000000,16.000000,0.000000,0.000000,0.000000,0.000000,0.000000,0.411656,0.528838,0.384212,0.139714,0.161544,330.000000,286.000000,44.000000,16.000000,0.000000,0.000000,0.000000,0.000000,0.000000;
#CREDIT:;
#DISPLAYBPM:175.000000;
#NOTES:
0000
0000
0000
0000
,
0000
0000
0000
0000
,
0000
0000
0000
0000
,
0000
0000
0000
0000
,
0000
0000
0000
0000
,
0000
0000
0000
0000
,
0000
0000
0000
0000
,
0000
0000
0000
0000
,
1000
0010
0000
0010
,
0100
0001
0000
0100
,
0001
0010
0000
0001
,
0010
0100
0000
1000
,
0100
0100
0010
0010
,
0001
0001
1000
1000
,
0002
2003
3002
1003
,
2002
0000
0000
3003
,
1000
0000
0000
0010
0000
0000
0100
0000
0100
0001
0000
0000
,
0100
0010
1000
0001
,
1000
1100
0001
0101
,
1000
1010
0001
0011
,
0010
0000
0000
0001
0000
0000
0010
0000
0010
0001
0000
0000
,
0010
0100
1000
0010
,
1000
1010
0001
0011
,
1000
1100
0001
0101
,
1000
0000
0000
0001
1000
0001
1000
0000
0000
0000
0000
0000
,
1000
0000
0000
0001
1000
0001
1000
0000
0000
0000
0000
0000
,
0001
0010
0100
1100
,
1000
0010
0100
0101
,
0100
0000
0000
0001
0100
0001
0100
0000
0000
0000
0000
0000
,
1000
0000
0000
0010
1000
0010
1000
0000
0000
0000
0000
0000
,
1000
0000
1000
0010
0000
0000
0100
0000
0100
0001
0000
0000
,
0011
1100
0011
1100
,
0001
0001
1000
1000
,
0100
0100
1100
0101
,
0100
0100
0010
0010
,
1000
1000
1010
0011
,
0010
0010
0001
0001
,
0010
0010
0011
1100
,
0001
0001
1000
1000
,
0100
0100
1100
1010
,
1000
0000
1000
0001
0000
0000
0100
0000
0000
0010
0000
0000
,
1000
0001
0011
1100
,
0001
0000
0001
0010
0000
0000
0100
0000
0000
1000
0000
0000
,
0010
0100
0101
1010
,
0001
0000
0001
0100
0000
0000
0001
0000
0000
1000
0000
0000
,
0010
1000
1010
1001
,
1000
0000
1000
0010
0000
0000
1000
0000
0000
0001
0000
0000
,
0010
0100
1000
0001
,
2000
0000
3002
0000
,
1003
0000
1000
0100
0000
0100
0010
0000
0010
0001
0000
0001
,
0020
0000
0032
0000
,
0013
0000
0010
0100
0000
0100
1000
0000
1000
0001
0000
0001
,
2000
0000
0000
0000
,
0000
0000
0000
0000
,
0000
0000
0000
0000
,
0000
0000
3000
0000
,
0001
0000
0000
1000
0000
0000
0001
0000
1000
0001
0000
0000
,
0010
0100
1000
0001
,
1000
0010
0100
0001
,
1000
0010
0100
0001
,
1000
0001
2000
3001
,
0010
0002
0013
0100
,
1000
0001
2002
0000
,
0000
3003
1000
0010
,
0100
0000
0100
0001
0000
0000
0100
0000
0000
0010
0000
0000
,
1000
0001
1000
1100
,
0001
0101
1000
1010
,
0001
0011
0010
0001
,
0010
0000
0010
0001
0000
0000
0010
0000
0000
0100
0000
0000
,
1000
0010
1000
1010
,
0001
0011
1000
1100
,
0001
0000
0000
0101
0000
0000
1000
0000
0000
0001
1000
0001
,
1000
0000
0000
0000
0000
0000
1000
0000
0000
0001
1000
0001
,
1000
0000
0001
0010
,
0100
1100
1000
0010
,
0100
0000
0000
0101
0000
0000
0100
0000
0000
0001
0100
0001
,
0100
0000
0000
0000
0000
0000
1000
0000
0000
0010
1000
0010
,
1000
0000
0000
0000
0000
0000
1000
0000
1000
0010
0000
0000
,
0100
0000
0100
0001
0000
0000
0011
0000
0000
1100
0000
0000
,
0011
0000
2002
0000
,
0000
0000
0000
3003
;

//---------------dance-single - ----------------
#NOTEDATA:;
#CHARTNAME:;
#STEPSTYPE:dance-single;
#DESCRIPTION:;
#CHARTSTYLE:;
#DIFFICULTY:Easy;
#METER:5;
#RADARVALUES:0.281922,0.352559,0.034928,0.192106,0.000000,226.000000,222.000000,4.000000,22.000000,0.000000,0.000000,0.000000,0.000000,0.000000,0.281922,0.352559,0.034928,0.192106,0.000000,226.000000,222.000000,4.000000,22.000000,0.000000,0.000000,0.000000,0.000000,0.000000;
#CREDIT:;
#DISPLAYBPM:175.000000;
#NOTES:
0000
0000
0000
0000
,
0000
0000
0000
0000
,
0000
0000
0000
0000
,
0000
0000
0000
0000
,
0000
0000
0000
0000
,
0000
0000
0000
0000
,
0000
0000
0000
0000
,
0000
0000
0000
0000
,
2000
0000
0000
3000
,
0002
0000
0000
0003
,
0200
0000
0000
0300
,
0020
0000
0000
0030
,
1000
0010
0100
0000
,
0100
0000
0100
0000
,
0001
0010
0100
0000
,
0200
0000
0000
0300
,
0100
0100
0100
0100
,
0010
0010
0010
0010
,
0001
0001
0001
0001
,
1000
1000
1000
1000
,
0001
0100
0001
0100
,
0010
0100
0010
0100
,
0001
0100
0001
0100
,
0010
0100
0010
0100
,
0010
1000
0001
0000
,
0010
0001
1000
0000
,
0001
0010
0100
1000
,
0001
0010
0100
1000
,
0001
1000
0100
0000
,
0001
1000
0100
0000
,
1000
0001
0100
0010
,
1000
0010
0001
0010
,
2000
0000
3002
0000
,
0023
0000
0031
0010
,
0200
0000
2300
0000
,
3200
0000
1300
0001
,
2000
0000
3002
0000
,
0203
0000
0310
0100
,
0002
0000
0203
0000
,
0310
1000
0001
1001
,
1000
0100
0010
0001
,
1000
0100
1000
0100
,
1000
0010
0100
0001
,
1000
0010
1000
0010
,
0100
0010
1000
0001
,
0010
0100
1000
0001
,
1000
0100
0010
0001
,
1000
0010
0100
0001
,
0100
0000
0100
0000
,
0010
0000
0010
0000
,
1000
0000
1000
0000
,
0001
0000
0001
0000
,
2002
0000
0000
0000
,
0000
0000
0000
0000
,
0000
0000
0000
0000
,
0000
0000
3003
0000
,
1000
1000
0001
0001
,
1000
0001
0010
0100
,
1000
1000
0001
0001
,
0100
0010
0100
0010
,
1000
0010
0100
0001
,
0100
0001
0100
0010
,
1000
0001
2002
0000
,
0000
3003
0100
0100
,
0100
0100
0010
0010
,
0010
0010
0001
0001
,
0001
0001
1000
1000
,
1000
1000
0001
0100
,
0001
0100
0010
0100
,
0010
0100
0001
0100
,
0001
0100
0010
0100
,
0010
0100
0010
1000
,
0001
0000
0010
0001
,
1000
0000
0001
0010
,
0100
1000
0001
0010
,
0100
1000
0001
1000
,
0100
0000
0001
1000
,
0100
0000
1000
0001
,
0100
0010
1000
0010
,
0001
0000
2002
0000
,
0000
0000
0000
3003
;

//---------------dance-single - ----------------
#NOTEDATA:;
#CHARTNAME:;
#STEPSTYPE:dance-single;
#DESCRIPTION:;
#CHARTSTYLE:;
#DIFFICULTY:Beginner;
#METER:3;
#RADARVALUES:0.159673,0.246791,0.026196,0.052393,0.000000,128.000000,125.000000,3.000000,6.000000,0.000000,0.000000,0.000000,0.000000,0.000000,0.159673,0.246791,0.026196,0.052393,0.000000,128.000000,125.000000,3.000000,6.000000,0.000000,0.000000,0.000000,0.000000,0.000000;
#CREDIT:;
#DISPLAYBPM:175.000000;
#NOTES:
// measure 0
0000
0000
0000
0000
,  // measure 1
0000
0000
0000
0000
,  // measure 2
0000
0000
0000
0000
,  // measure 3
0000
0000
0000
0000
,  // measure 4
0000
0000
0000
0000
,  // measure 5
0000
0000
0000
0000
,  // measure 6
0000
0000
0000
0000
,  // measure 7
0000
0000
0000
0000
,  // measure 8
1000
0000
0000
0000
,  // measure 9
0001
0000
0000
0000
,  // measure 10
0100
0000
0000
0000
,  // measure 11
0010
0000
0000
0000
,  // measure 12
1000
0000
0000
0000
,  // measure 13
0100
0000
0000
0000
,  // measure 14
0001
0000
0000
0000
,  // measure 15
0100
0000
0000
0000
,  // measure 16
0100
0000
0100
0000
,  // measure 17
0010
0000
0010
0000
,  // measure 18
0001
0000
0001
0000
,  // measure 19
1000
0000
1000
0000
,  // measure 20
0001
0000
0001
0000
,  // measure 21
0010
0000
0010
0000
,  // measure 22
0001
0000
0001
0000
,  // measure 23
0010
0000
0010
0000
,  // measure 24
0010
0000
0001
0000
,  // measure 25
0010
0000
1000
0000
,  // measure 26
0001
0000
0100
0000
,  // measure 27
0001
0000
0100
0000
,  // measure 28
0001
0000
0100
0000
,  // measure 29
0001
0000
0100
0000
,  // measure 30
1000
0000
0100
0000
,  // measure 31
1000
0000
0001
0000
,  // measure 32
1000
0000
0001
0000
,  // measure 33
0010
0000
0001
0000
,  // measure 34
0100
0000
1000
0000
,  // measure 35
0100
0000
1000
0000
,  // measure 36
1000
0000
0001
0000
,  // measure 37
0100
0000
0010
0000
,  // measure 38
0001
0000
0100
0000
,  // measure 39
0010
0000
0001
0000
,  // measure 40
1000
0000
0010
0000
,  // measure 41
1000
0000
1000
0000
,  // measure 42
1000
0000
0100
0000
,  // measure 43
1000
0000
1000
0000
,  // measure 44
0100
0000
1000
0000
,  // measure 45
0010
0000
1000
0000
,  // measure 46
1000
0000
0010
0000
,  // measure 47
1000
0000
0100
0000
,  // measure 48
0100
0000
0000
0000
,  // measure 49
0010
0000
0000
0000
,  // measure 50
1000
0000
0000
0000
,  // measure 51
0001
0000
0000
0000
,  // measure 52
2002
0000
0000
0000
,  // measure 53
0000
0000
0000
0000
,  // measure 54
0000
0000
0000
0000
,  // measure 55
0000
0000
3003
0000
,  // measure 56
1000
0000
0001
0000
,  // measure 57
1000
0000
0010
0000
,  // measure 58
1000
0000
0001
0000
,  // measure 59
0100
0000
0100
0000
,  // measure 60
1000
0000
1000
0001
,  // measure 61
0000
0001
0001
0000
,  // measure 62
1000
0000
2002
0000
,  // measure 63
0000
3003
0100
0000
,  // measure 64
0100
0000
0010
0000
,  // measure 65
0010
0000
0001
0000
,  // measure 66
0001
0000
1000
0000
,  // measure 67
1000
0000
0001
0000
,  // measure 68
0001
0000
0010
0000
,  // measure 69
0010
0000
0001
0000
,  // measure 70
0001
0000
0010
0000
,  // measure 71
0010
0000
0010
0000
,  // measure 72
0001
0000
0010
0000
,  // measure 73
1000
0000
0001
0000
,  // measure 74
0100
0000
0001
0000
,  // measure 75
0100
0000
0001
0000
,  // measure 76
0100
0000
0001
0000
,  // measure 77
0100
0000
1000
0000
,  // measure 78
0100
0000
1000
0000
,  // measure 79
0001
0000
2002
0000
,  // measure 80
0000
0000
0000
3003
;
