#TITLE:Flashing Lights;
#SUBTITLE:;
#ARTIST:Kanye West feat. Dwele;
#TITLETRANSLIT:;
#SUBTITLETRANSLIT:;
#ARTISTTRANSLIT:;
#GENRE:;
#CREDIT:Chewi☆;
#MENUCOLOR:#FFFF00;
#METERTYPE:DDR;
#BANNER:Flashing Lights.png;
#BACKGROUND:Flashing Lights-bg.png;
#LYRICSPATH:;
#CDTITLE:./CDTITLES/Zenius -I- vanisher SUMMER CONTEST 2011.png;
#MUSIC:Flashing Lights.mp3;
#OFFSET:-0.775;
#SAMPLESTART:11.382;
#SAMPLELENGTH:15.000;
#SELECTABLE:YES;
#LISTSORT:;
#DISPLAYBPM:90.000;
#BPMS:0.000=90.500;
#STOPS:;
#BGCHANGES:;
#ATTACKS:;

//---------------dance-single - Chewi----------------
#NOTES:
     dance-single:
     Chewi:
     Beginner:
     1:
     0.046,0.053,0.000,0.000,0.000: // measure 1
0000
0000
0000
0000
,  // measure 2
0000
0000
0000
0000
,  // measure 3
0000
0000
0000
0000
,  // measure 4
0000
0000
0000
0000
,  // measure 5
1000
0000
0000
0000
,  // measure 6
0001
0000
0000
0000
,  // measure 7
0100
0000
0000
0000
,  // measure 8
0010
0000
0000
0000
,  // measure 9
1000
0000
0000
0000
,  // measure 10
0010
0000
0000
0000
,  // measure 11
1000
0000
0000
0000
,  // measure 12
0001
0000
0000
0000
,  // measure 13
0010
0000
0000
0000
,  // measure 14
0100
0000
0000
0000
,  // measure 15
1000
0000
0000
0000
,  // measure 16
0010
0000
0000
0000
,  // measure 17
0100
0000
0000
0000
,  // measure 18
0001
0000
0000
0000
,  // measure 19
1000
0000
0000
0000
,  // measure 20
0100
0000
0000
0000
,  // measure 21
0010
0000
0000
0000
,  // measure 22
0001
0000
0000
0000
,  // measure 23
1000
0000
0000
0000
,  // measure 24
0001
0000
0000
0000
,  // measure 25
0100
0000
0000
0000
,  // measure 26
0100
0000
0000
0000
,  // measure 27
0001
0000
0000
0000
,  // measure 28
0001
0000
0000
0000
,  // measure 29
1000
0000
0000
0000
,  // measure 30
1000
0000
0000
0000
,  // measure 31
0001
0000
0000
0000
,  // measure 32
0001
0000
0000
0000
,  // measure 33
0010
0000
0000
0000
;

//---------------dance-single - Chewi----------------
#NOTES:
     dance-single:
     Chewi:
     Easy:
     2:
     0.148,0.163,0.000,0.275,0.000: // measure 1
0000
0000
0000
0000
,  // measure 2
0000
0000
0000
0000
,  // measure 3
0000
0000
0000
0000
,  // measure 4
0000
0000
0000
0000
,  // measure 5
1000
1000
1000
0001
,  // measure 6
0002
0003
2000
3000
,  // measure 7
0100
0010
0100
0010
,  // measure 8
0020
0030
0200
0300
,  // measure 9
2000
0000
0000
0000
,  // measure 10
3020
0000
0000
0000
,  // measure 11
2030
0000
0000
0000
,  // measure 12
3002
0000
0000
0000
,  // measure 13
0013
0010
0020
0000
,  // measure 14
0130
0100
0200
0000
,  // measure 15
1300
0100
0002
0000
,  // measure 16
0013
1000
0020
0000
,  // measure 17
0230
0000
0000
0000
,  // measure 18
0302
0000
0000
0000
,  // measure 19
2003
0000
0000
0000
,  // measure 20
3200
0000
0000
0000
,  // measure 21
0310
0100
0020
0000
,  // measure 22
0031
1000
0200
0000
,  // measure 23
1300
0001
0020
0000
,  // measure 24
0031
1000
0020
0000
,  // measure 25
0130
1000
0010
1000
,  // measure 26
0100
0000
0100
0100
,  // measure 27
0001
0010
0100
0010
,  // measure 28
0001
0000
1000
0001
,  // measure 29
2000
0000
3020
0000
,  // measure 30
1030
1000
1000
0000
,  // measure 31
0002
0000
0203
0000
,  // measure 32
0301
0001
0001
0000
,  // measure 33
0020
0000
0000
0000
,  // measure 34
0030
0000
0000
0000
;

//---------------dance-single - Chewi----------------
#NOTES:
     dance-single:
     Chewi:
     Medium:
     4:
     0.192,0.236,0.055,0.264,0.000: // measure 1
0000
0000
0000
0000
,  // measure 2
0000
0000
0000
0000
,  // measure 3
0000
0000
0000
0000
,  // measure 4
0000
0000
0000
0000
,  // measure 5
2000
3010
0100
0100
,  // measure 6
0200
0301
0010
0010
,  // measure 7
0002
1003
0100
0010
,  // measure 8
0002
0013
1000
0100
,  // measure 9
0220
0000
0000
0300
,  // measure 10
0002
0000
0000
0030
,  // measure 11
0200
0000
0000
0003
,  // measure 12
0020
0000
0000
0330
,  // measure 13
0020
0000
2030
0000
3010
0100
0010
0000
,  // measure 14
0100
0100
0010
0010
,  // measure 15
2000
0000
3002
0000
0013
0100
0010
0000
,  // measure 16
0100
0100
0010
0010
,  // measure 17
2002
0000
0000
0003
,  // measure 18
0020
0000
0000
3000
,  // measure 19
0002
0000
0000
0030
,  // measure 20
0200
0000
0000
0303
,  // measure 21
1000
0000
0100
0000
1000
0001
0100
0000
,  // measure 22
0001
0000
0100
0000
0001
1000
0100
0000
,  // measure 23
0010
0100
0100
0010
,  // measure 24
0001
0100
1000
0010
,  // measure 25
1000
0001
0010
0100
,  // measure 26
0110
0000
0100
0010
,  // measure 27
0001
1000
0010
0100
,  // measure 28
0110
0000
0100
0100
,  // measure 29
0200
0000
0302
0000
0013
0100
0010
0000
,  // measure 30
0100
0100
0100
0100
,  // measure 31
2000
0000
3200
0000
1300
0100
1000
0000
,  // measure 32
0010
0010
0100
0100
,  // measure 33
2002
0000
0000
0000
,  // measure 34
3003
0000
0000
0000
;

//---------------dance-single - Chewi----------------
#NOTES:
     dance-single:
     Chewi:
     Hard:
     6:
     0.264,0.327,0.044,0.110,0.000: // measure 1
0000
0000
0000
0000
,  // measure 2
0000
0000
0000
0000
,  // measure 3
0000
0000
0000
0000
,  // measure 4
0000
0000
0000
0000
,  // measure 5
1000
0000
0001
0000
0100
1000
0010
0000
,  // measure 6
0001
0000
1000
0000
0100
0001
0010
0000
,  // measure 7
0100
0000
0010
0000
0001
0100
1000
0000
,  // measure 8
0010
0000
0100
0000
1000
0100
0001
0000
,  // measure 9
0012
0100
1000
0010
,  // measure 10
2003
0100
0010
0001
,  // measure 11
3020
0100
0001
0100
,  // measure 12
2030
0100
0001
0010
,  // measure 13
3010
1000
0010
1000
0010
0000
0100
0000
,  // measure 14
0001
0100
0001
0100
0010
0000
1000
0000
,  // measure 15
0001
0100
1000
0100
0001
0000
0100
0000
,  // measure 16
0001
0010
1000
0010
0001
0000
0010
0000
,  // measure 17
0210
0010
0010
0001
,  // measure 18
0302
0010
1000
0100
,  // measure 19
2003
0010
0100
0010
,  // measure 20
3020
1000
0100
0001
,  // measure 21
0130
0000
0001
0000
0010
0100
0010
0100
,  // measure 22
0010
0001
0100
1000
,  // measure 23
0010
0000
0100
0000
1000
0100
0001
0100
,  // measure 24
1000
0000
0010
0000
0100
0001
0010
0100
,  // measure 25
1000
0100
0010
0001
1000
0010
0100
0000
,  // measure 26
0101
0000
0000
0000
0001
0100
0010
1000
,  // measure 27
0000
0001
1000
0100
0010
0001
1000
0000
,  // measure 28
0100
0000
0000
0000
0100
0010
0001
1000
,  // measure 29
0010
0001
0010
1000
0010
0001
0100
1000
,  // measure 30
0100
0001
0100
1000
0100
0010
0001
1000
,  // measure 31
0010
0001
0010
1000
0010
0001
0100
1000
,  // measure 32
0010
1000
0100
1000
0010
0100
0001
0010
,  // measure 33
0220
0000
0000
0000
,  // measure 34
0330
0000
0000
0000
;

//---------------dance-single - Chewi----------------
#NOTES:
     dance-single:
     Chewi:
     Challenge:
     8:
     0.441,0.508,0.176,0.022,0.396: // measure 1
0000
0000
0000
0000
,  // measure 2
0000
0000
0000
0000
,  // measure 3
0000
0000
0000
0000
,  // measure 4
0000
0000
0000
0000
,  // measure 5
1000
0000
0100
0010
0001
0000
0010
0000
0100
1000
0010
0000
1000
0100
0000
0010
,  // measure 6
0001
0000
0100
0010
0100
0000
0001
0000
0100
0010
1000
0000
0001
0010
0000
0010
,  // measure 7
0001
0000
0010
0100
1000
0000
0010
0000
0100
0001
0100
0000
0010
0100
0000
0001
,  // measure 8
0010
0000
0100
0010
0001
0000
1000
0000
0100
0010
0001
0000
1000
0010
0000
0100
,  // measure 9
0001
0000
0011
0000
0001
1000
1100
0000
,  // measure 10
1000
0000
1001
0000
0100
0100
0110
0000
,  // measure 11
0010
0000
0100
0000
1000
0000
0010
0000
0001
0000
0001
0010
0000
0000
0100
0000
,  // measure 12
0000
0000
1000
0100
0010
0000
0001
0010
0100
0000
1000
0001
0000
0000
0100
0000
,  // measure 13
0010
0000
1000
0100
1000
0000
0010
0000
0100
0001
0010
0000
0100
0010
0000
0010
,  // measure 14
0100
0000
0010
0001
0100
0000
0010
0000
0100
0001
0010
0000
0100
0010
0000
0010
,  // measure 15
0100
0000
1000
0010
0100
0000
0001
0000
0100
0010
1000
0000
0001
0010
0000
1000
,  // measure 16
0010
0000
0001
0010
0100
0000
1000
0100
0001
0100
1000
0000
0010
0100
0000
0100
,  // measure 17
0001
0000
0011
0000
0001
0010
0100
1000
,  // measure 18
0010
0000
1100
0000
1000
0100
0001
0100
,  // measure 19
1001
0000
0110
0000
0100
0010
1000
0001
,  // measure 20
0011
0000
1010
0000
0001
0100
1000
0010
,  // measure 21
0100
0000
0001
0010
0100
0000
0010
0000
0001
0100
0001
0000
0010
0001
0000
0010
,  // measure 22
0100
0000
1000
0010
0100
0000
0010
0000
1000
0100
0010
0000
0100
1000
0000
1000
,  // measure 23
0010
0000
0100
0001
0100
0000
0010
0000
1000
0001
0010
0000
0100
0010
0000
0010
,  // measure 24
0100
0000
1000
0001
0100
0000
0010
0000
0100
0001
0010
0100
1000
0010
0100
0001
,  // measure 25
0100
0010
1000
0001
0010
0100
0011
0001
,  // measure 26
0101
0000
0010
0000
1010
0100
0001
0010
,  // measure 27
0100
1000
0001
0100
0010
1000
1001
0010
,  // measure 28
0110
0000
0010
0001
0010
0100
1000
0010
,  // measure 29
0100
0000
0001
0100
0010
0000
1000
0000
0001
0010
0100
0000
1000
0100
0000
0000
,  // measure 30
0100
0000
0010
1000
0001
0000
0010
0000
0100
0010
0001
0000
0100
0001
0000
0001
,  // measure 31
0010
0100
1000
0000
0010
0100
0001
0000
0100
0010
0100
0000
0001
0010
0000
0100
,  // measure 32
1000
0010
1000
0000
0100
0010
0001
0000
1000
0100
0010
0001
1000
0100
0010
0001
,  // measure 33
2002
0000
0000
0000
,  // measure 34
0000
3003
0000
0000
0000
0000
0000
0000
0000
0000
0000
0000
0000
0000
0000
0000
0000
0000
0000
0000
0000
0000
0000
0000
0000
0000
0000
0000
0000
0000
0000
0000
0000
0000
0000
0000
0000
0000
0000
0000
0000
0000
0000
0000
0000
0000
0000
0000
0000
0000
0000
0000
0000
0000
0000
0000
0000
0000
0000
0000
0000
0000
0000
0000
0000
0000
0000
0000
0000
0000
0000
0000
0000
0000
0000
0000
0000
0000
0000
0000
0000
0000
0000
0000
0000
0000
0000
0000
0000
0000
0000
0000
0000
0000
0000
0000
0000
0000
0000
0000
0000
0000
0000
0000
0000
0000
0000
0000
0000
0000
0000
0000
0000
0000
0000
0000
0000
0000
0000
0000
0000
0000
0000
0000
0000
0000
0000
0000
0000
0000
0000
0000
0000
0000
0000
0000
0000
0000
0000
0000
0000
0000
0000
0000
0000
0000
0000
0000
0000
0000
0000
0000
0000
0000
0000
0000
0000
0000
0000
0000
0000
0000
0000
0000
0000
0000
0000
0000
0000
0000
0000
0000
0000
0000
0000
0000
0000
0000
0000
0000
0000
0000
0000
0000
0000
0000
0000
0000
0000
0000
0000
0000
;
