#TITLE:First Kiss;
#SUBTITLE:;
#ARTIST:bjj;
#TITLETRANSLIT:;
#SUBTITLETRANSLIT:;
#ARTISTTRANSLIT:;
#GENRE:;
#CREDIT:Chewi☆;
#MENUCOLOR:;
#METERTYPE:DDR X;
#BANNER:First Kiss.png;
#BACKGROUND:First Kiss-bg.png;
#LYRICSPATH:;
#CDTITLE:;
#MUSIC:First Kiss.mp3;
#OFFSET:-0.308;
#SAMPLESTART:45.090;
#SAMPLELENGTH:15.000;
#SELECTABLE:YES;
#LISTSORT:;
#DISPLAYBPM:107.000;
#BPMS:0.000=107.000;
#STOPS:;
#BGCHANGES:;
#ATTACKS:;

//---------------dance-single - Chewi----------------
#NOTES:
     dance-single:
     Chewi:
     Easy:
     3:
     0.155,0.189,0.047,0.103,0.000: // measure 1
0000
0000
0000
0000
,  // measure 2
0000
0000
0000
0000
,  // measure 3
0000
0000
0000
0000
,  // measure 4
0000
0000
0000
0000
,  // measure 5
2000
0000
0000
3000
,  // measure 6
1000
1000
1000
0000
,  // measure 7
1001
0000
0001
0000
,  // measure 8
0001
1000
0001
0000
,  // measure 9
0002
0000
0000
0003
,  // measure 10
0001
0001
0001
0000
,  // measure 11
1001
0000
0001
0000
,  // measure 12
1000
0001
1000
0000
,  // measure 13
0010
0010
0010
0010
,  // measure 14
0100
0100
0100
0100
,  // measure 15
0010
0010
0010
0010
,  // measure 16
0110
0000
0000
0000
,  // measure 17
0100
0100
0100
0100
,  // measure 18
0010
0010
0010
0010
,  // measure 19
0100
0100
0100
0100
,  // measure 20
0010
0010
0010
0000
,  // measure 21
0010
1000
0100
0000
,  // measure 22
0100
0010
0100
0000
,  // measure 23
0100
0001
0010
0000
,  // measure 24
0010
0100
0010
0000
,  // measure 25
0010
0001
0100
0000
,  // measure 26
0010
0100
0010
0000
,  // measure 27
0100
1000
0010
0000
,  // measure 28
0010
0100
0010
0000
,  // measure 29
2002
0000
0000
0000
,  // measure 30
0000
0000
0000
3003
,  // measure 31
0220
0000
0000
0000
,  // measure 32
0000
0000
0000
0330
,  // measure 33
0010
0000
0001
0000
,  // measure 34
0010
0010
0010
0000
,  // measure 35
1000
0000
0010
0000
,  // measure 36
0010
0010
0010
0010
,  // measure 37
2000
0000
0000
3000
,  // measure 38
1000
0001
1000
0000
,  // measure 39
0002
0000
0000
0003
,  // measure 40
0001
1000
0001
0000
,  // measure 41
0020
0000
0000
0030
,  // measure 42
0010
0100
0010
0000
,  // measure 43
0200
0000
0000
0300
,  // measure 44
0010
0100
0010
0000
,  // measure 45
0020
0000
0000
0000
,  // measure 46
0030
0000
0000
0000
;

//---------------dance-single - Chewi----------------
#NOTES:
     dance-single:
     Chewi:
     Medium:
     6:
     0.231,0.273,0.093,0.383,0.000:
0000
0000
0000
0000
,
0000
0000
0000
0000
,
0000
0000
0000
0000
,
0000
0000
0000
0000
,
2000
0000
0000
3000
,
0001
1000
0010
0100
,
0200
0000
0000
0300
,
0010
0100
0001
1000
,
0002
0000
0000
0003
,
0010
0100
1000
0010
,
0200
0000
0000
0300
,
0010
1000
0001
0000
,
1000
1000
0100
0100
,
0010
0010
0001
0001
,
0001
0001
0010
0010
,
0100
0100
1000
1000
,
0010
0010
1000
1000
,
0010
0010
0100
0100
,
0001
0001
0100
0100
,
0010
0000
1000
0000
0001
1001
0000
0000
,
0002
1000
0020
0033
,
2000
0010
0002
3003
,
0200
0010
0020
0330
,
0020
0100
0200
0330
,
0020
1000
2000
3030
,
2000
0001
0002
3003
,
0002
0010
0020
0033
,
0200
0010
0020
0330
,
2002
0000
0000
3003
,
1000
0010
0001
0100
,
2000
0000
0000
3000
,
0002
0000
0000
0003
,
0010
0100
0100
0010
,
1001
0010
1001
0000
,
1000
0001
0001
1000
,
1001
0000
1001
0000
0100
0100
0000
0000
,
2010
0001
0002
3003
,
0102
1000
2000
3003
,
0020
0100
0200
0330
,
0200
0010
0020
0330
,
2010
0001
0020
3030
,
0102
1000
0200
0303
,
2000
0100
0200
3300
,
0002
0100
0200
0303
,
2000
0000
0000
0000
,
3000
0000
0000
0000
;

//---------------dance-single - Chewi----------------
#NOTES:
     dance-single:
     Chewi:
     Hard:
     10:
     0.374,0.378,0.131,0.093,0.285:
0000
0000
0000
0000
,
0000
0000
0000
0000
,
0000
0000
0000
0000
,
0000
0000
0000
0000
,
2000
0000
0000
3001
1000
0010
0100
0000
,
0010
0000
0000
0010
0000
0000
0010
0000
0000
0000
0000
0000
0100
0000
0001
0000
,
0100
0000
0100
1000
0100
0000
0100
0010
,
0100
0000
0000
0100
0000
0000
0100
0000
0010
0000
0000
0010
0000
0000
0010
0000
,
0002
0000
0000
1003
0001
1000
0010
0100
,
0100
0000
0000
0100
0000
0000
0100
0000
0000
0000
0000
0000
0100
0000
0010
0000
,
0001
0000
0100
0001
0100
0000
0100
0010
,
1000
0000
0000
1000
0000
0001
0000
0000
0001
0000
0000
0001
0000
1000
0000
0000
,
1000
0000
0000
1000
0010
0000
0000
0010
0100
0000
0000
0100
0001
0000
0000
0001
,
0010
0000
0000
0010
0100
0000
0000
0100
1000
0000
0000
1000
0100
0000
0000
0100
,
0010
0000
0000
0010
0001
0000
0000
0001
0100
0000
0000
0100
1000
0000
0000
1000
,
0010
0000
0110
0000
0020
0230
0300
0100
,
0010
0000
0000
0010
1000
0000
0000
1000
0001
0000
0000
0001
0010
0000
0000
0010
,
0100
0000
0000
0100
1000
0000
0000
1000
0100
0000
0000
0100
0010
0000
0001
0000
,
0100
0001
0010
0000
0100
1000
0010
0000
,
0110
0000
1001
0000
1000
0001
0000
0000
,
1000
0000
0100
0001
0000
0010
0000
1000
0000
0000
0000
0000
1000
0000
0010
0000
,
0001
0000
0100
1000
0000
0010
0000
0001
0000
0000
0000
0000
0010
0000
0100
0000
,
0101
0000
0010
0100
1100
0000
1000
0001
,
1000
0000
1000
0000
0010
0000
0001
0010
0000
1000
0010
0000
0001
0000
0000
0000
,
0001
0000
0010
1000
0000
0100
0000
0001
0000
0000
0000
0000
0001
0000
0100
0000
,
1000
0000
0010
0001
0000
0100
0000
1000
0000
0000
0000
0000
0100
0000
0010
0000
,
1010
0000
0100
0010
0011
0000
0001
1000
,
0001
0001
0100
1000
0100
0001
0001
1001
,
1000
0000
0000
1000
0000
0000
2000
0000
0000
0000
0000
0000
0000
0000
0000
0000
,
3010
0000
0000
0010
0000
0000
0020
0000
0000
0000
0000
0000
0000
0000
0000
0000
,
0130
0000
0000
0100
0000
0000
0200
0000
0000
0000
0000
0000
0000
0000
0000
0000
,
0301
0010
1000
0010
0001
0100
1000
0100
,
1000
0000
0101
0000
0000
0010
0000
0000
0100
0000
1000
0100
0000
0000
1000
0000
,
0010
0000
0100
0001
0000
0001
0000
0100
0000
0000
0000
0000
0010
0000
1000
0000
,
0001
0010
0100
0000
1000
0100
0010
0000
,
1001
0000
0110
0000
0200
0302
0003
0001
,
0010
0000
0100
1000
0000
0100
0000
0001
0000
0000
0000
0000
0100
0000
1000
0000
,
0010
0000
0100
0001
0000
0010
0000
1000
0000
0000
0000
0000
0100
0000
0010
0000
,
1001
0000
0100
0010
1001
0000
1000
0010
,
0100
0001
0010
0100
1000
0010
0100
0001
,
0010
0000
0001
0100
0000
1000
0000
0010
0000
0000
0000
0000
0001
0000
0010
0000
,
1000
0000
0100
0001
0000
0010
0000
1000
0000
0000
0000
0000
0010
0000
0100
0000
,
0101
0000
0010
0100
1000
0010
0100
0001
,
1000
0100
0001
0100
1000
0010
0001
0010
,
0020
0000
0000
0000
,
0030
0000
0000
0000
;

//---------------dance-single - Chewi----------------
#NOTES:
     dance-single:
     Chewi:
     Beginner:
     2:
     0.104,0.126,0.047,0.103,0.000: // measure 1
0000
0000
0000
0000
,  // measure 2
0000
0000
0000
0000
,  // measure 3
0000
0000
0000
0000
,  // measure 4
0000
0000
0000
0000
,  // measure 5
2000
0000
0000
3000
,  // measure 6
1000
0000
0000
0000
,  // measure 7
1001
0000
0000
0000
,  // measure 8
0001
0000
0000
0000
,  // measure 9
0002
0000
0000
0003
,  // measure 10
0001
0000
0000
0000
,  // measure 11
1001
0000
0000
0000
,  // measure 12
1000
0000
0000
0000
,  // measure 13
0010
0000
0010
0000
,  // measure 14
0100
0000
0100
0000
,  // measure 15
0010
0000
0010
0000
,  // measure 16
0110
0000
0000
0000
,  // measure 17
0100
0000
0100
0000
,  // measure 18
0010
0000
0010
0000
,  // measure 19
0100
0000
0100
0000
,  // measure 20
0010
0000
0010
0000
,  // measure 21
0010
0000
0100
0000
,  // measure 22
0100
0000
0100
0000
,  // measure 23
0100
0000
0010
0000
,  // measure 24
0010
0000
0010
0000
,  // measure 25
0010
0000
0100
0000
,  // measure 26
0010
0000
0010
0000
,  // measure 27
0100
0000
0010
0000
,  // measure 28
0010
0000
0010
0000
,  // measure 29
2002
0000
0000
0000
,  // measure 30
0000
0000
0000
3003
,  // measure 31
0220
0000
0000
0000
,  // measure 32
0000
0000
0000
0330
,  // measure 33
0010
0000
0001
0000
,  // measure 34
0010
0000
0010
0000
,  // measure 35
1000
0000
0010
0000
,  // measure 36
0010
0000
0010
0000
,  // measure 37
2000
0000
0000
3000
,  // measure 38
1000
0000
1000
0000
,  // measure 39
0002
0000
0000
0003
,  // measure 40
0001
0000
0001
0000
,  // measure 41
0020
0000
0000
0030
,  // measure 42
0010
0000
0010
0000
,  // measure 43
0200
0000
0000
0300
,  // measure 44
0100
0000
0100
0000
,  // measure 45
0020
0000
0000
0000
,  // measure 46
0030
0000
0000
0000
;
