#TITLE:Firework;
#SUBTITLE:;
#ARTIST:Katy Perry;
#TITLETRANSLIT:;
#SUBTITLETRANSLIT:;
#ARTISTTRANSLIT:;
#GENRE:;
#CREDIT:Chewi☆;
#MENUCOLOR:#FFFFFF;
#METERTYPE:DDR X;
#BANNER:Firework.png;
#BACKGROUND:Firework-bg.png;
#LYRICSPATH:;
#CDTITLE:./CDTITLES/DanceDanceRevolution skyMIX3 -breeze-.png;
#MUSIC:Firework.mp3;
#OFFSET:-0.595;
#SAMPLESTART:70.282;
#SAMPLELENGTH:15.000;
#SELECTABLE:YES;
#LISTSORT:;
#DISPLAYBPM:124.000;
#BPMS:0.000=124.000;
#STOPS:;
#BGCHANGES:0.000=Firework.avi=1.000=1=0=0,
212.000=Firework-bg.png=1.000=1=0=1,
99999=-nosongbg-=1.000=0=0=0 // don't automatically add -songbackground-
;
#ATTACKS:;

//---------------dance-single - Chewi----------------
#NOTES:
     dance-single:
     Chewi:
     Beginner:
     2:
     0.096,0.174,0.038,0.000,0.000: // measure 1
0000
0000
0000
0000
,  // measure 2
0000
0000
0000
0000
,  // measure 3
0000
0000
0000
0000
,  // measure 4
0000
0000
0000
0000
,  // measure 5
1000
0000
0000
0000
,  // measure 6
0001
0000
0000
0000
,  // measure 7
0100
0000
0000
0000
,  // measure 8
0010
0000
0000
0000
,  // measure 9
1000
0000
0000
0000
,  // measure 10
0001
0000
0000
0000
,  // measure 11
0100
0000
0000
0000
,  // measure 12
0010
0000
0000
0000
,  // measure 13
1000
0000
0000
0000
,  // measure 14
0001
0000
0000
0000
,  // measure 15
0010
0000
0000
0000
,  // measure 16
0100
0000
0000
0000
,  // measure 17
0010
0000
0000
0000
,  // measure 18
0001
0000
0000
0000
,  // measure 19
1000
0000
0000
0000
,  // measure 20
0100
0000
0000
0000
,  // measure 21
0010
0000
0010
0000
,  // measure 22
0100
0000
0100
0000
,  // measure 23
0001
0000
0001
0000
,  // measure 24
1001
0000
0000
0000
,  // measure 25
1000
0000
1000
0000
,  // measure 26
0001
0000
0001
0000
,  // measure 27
0100
0000
0100
0000
,  // measure 28
0110
0000
0000
0000
,  // measure 29
1000
0000
0000
0000
,  // measure 30
0100
0000
0000
0000
,  // measure 31
0001
0000
0000
0000
,  // measure 32
0010
0000
0000
0000
,  // measure 33
0001
0000
0000
0000
,  // measure 34
0100
0000
0000
0000
,  // measure 35
1000
0000
0000
0000
,  // measure 36
0010
0000
0000
0000
,  // measure 37
0010
0000
0010
0000
,  // measure 38
0110
0000
0000
0000
,  // measure 39
0100
0000
0100
0000
,  // measure 40
0110
0000
0000
0000
,  // measure 41
1000
0000
0001
0000
,  // measure 42
1000
0000
0000
0000
,  // measure 43
0010
0000
0100
0000
,  // measure 44
0010
0000
0000
0000
,  // measure 45
0001
0000
0001
0000
,  // measure 46
0001
0000
0000
0000
,  // measure 47
0010
0000
0010
0000
,  // measure 48
0010
0000
0000
0000
,  // measure 49
1000
0000
1000
0000
,  // measure 50
1000
0000
0000
0000
,  // measure 51
0100
0000
0100
0000
,  // measure 52
0100
0100
0100
0100
,  // measure 53
0100
0000
0000
0000
;

//---------------dance-single - Chewi----------------
#NOTES:
     dance-single:
     Chewi:
     Easy:
     5:
     0.205,0.254,0.077,0.278,0.000: // measure 1
0000
0000
0000
0000
,  // measure 2
0000
0000
0000
0000
,  // measure 3
0000
0000
0000
0000
,  // measure 4
0000
0000
0000
0000
,  // measure 5
1000
0000
1000
0000
,  // measure 6
0001
0000
0001
0000
,  // measure 7
0100
0000
0100
0000
,  // measure 8
0010
0000
0010
0000
,  // measure 9
2000
0000
3000
1000
,  // measure 10
0002
0000
0003
0001
,  // measure 11
0200
0000
0300
0100
,  // measure 12
0020
0000
0030
0010
,  // measure 13
1000
0000
1000
0000
,  // measure 14
0001
0000
0001
0000
,  // measure 15
0010
0000
0010
0000
,  // measure 16
0100
0000
0100
0000
,  // measure 17
0020
0000
0030
0010
,  // measure 18
0002
0000
0003
0001
,  // measure 19
2000
0000
3000
1000
,  // measure 20
0200
0000
0300
0100
,  // measure 21
0010
0010
0010
0010
,  // measure 22
0100
0100
0100
0100
,  // measure 23
0001
1000
0001
1000
,  // measure 24
1001
0000
0000
0000
,  // measure 25
1000
1000
1000
1000
,  // measure 26
0001
0001
0001
0001
,  // measure 27
0100
0010
0100
0010
,  // measure 28
0110
0000
0000
0000
,  // measure 29
2000
0000
0000
3000
,  // measure 30
0200
0000
0000
0300
,  // measure 31
0002
0000
0000
0003
,  // measure 32
0020
0000
0000
0030
,  // measure 33
0002
0000
0000
0003
,  // measure 34
0200
0000
0000
0300
,  // measure 35
2000
0000
0000
3000
,  // measure 36
0020
0000
0000
0030
,  // measure 37
0010
0010
0010
0010
,  // measure 38
0020
0030
0020
0030
,  // measure 39
0100
0100
0100
0100
,  // measure 40
0200
0300
0200
0300
,  // measure 41
1001
0000
1001
0000
,  // measure 42
1001
0000
1000
0100
,  // measure 43
0110
0000
0110
0000
,  // measure 44
0110
0000
0001
0010
,  // measure 45
0002
0000
2003
0000
,  // measure 46
3001
0001
1000
1000
,  // measure 47
0020
0000
0230
0000
,  // measure 48
0310
0010
0100
0100
,  // measure 49
0002
0000
2003
0000
,  // measure 50
3001
0001
1000
1000
,  // measure 51
0020
0000
0230
0000
,  // measure 52
0310
0010
0100
0100
,  // measure 53
0200
0000
0000
0000
,  // measure 54
0300
0000
0000
0000
;

//---------------dance-single - Chewi----------------
#NOTES:
     dance-single:
     Chewi:
     Medium:
     7:
     0.295,0.355,0.144,0.249,0.000: // measure 1
0000
0000
0000
0000
,  // measure 2
0000
0000
0000
0000
,  // measure 3
0000
0000
0000
0000
,  // measure 4
0000
0000
0000
0000
,  // measure 5
1000
0000
0100
0000
0000
0100
0100
0000
,  // measure 6
0001
0000
0100
0000
0000
0100
0100
0000
,  // measure 7
1000
0000
0010
0000
0000
0010
0010
0000
,  // measure 8
0001
0000
0010
0000
0000
0010
0010
0000
,  // measure 9
0100
0000
0010
0000
0000
0010
0010
0000
,  // measure 10
0001
0000
1000
0000
0000
0001
0001
0000
,  // measure 11
1000
0000
0001
0000
0000
1000
1000
0000
,  // measure 12
0010
0000
0100
0000
0010
0100
0010
0000
,  // measure 13
1000
0010
0001
0010
,  // measure 14
1000
0100
0001
0100
,  // measure 15
1000
0001
0100
0010
,  // measure 16
1000
0001
0010
0100
,  // measure 17
1000
0100
0010
0100
,  // measure 18
1000
0010
0001
0010
,  // measure 19
0001
0010
0100
0010
,  // measure 20
0001
0100
1000
0100
,  // measure 21
2000
3010
2000
3010
,  // measure 22
0002
0013
0002
0013
,  // measure 23
2000
3100
2000
3100
,  // measure 24
0002
0103
0002
0103
,  // measure 25
2000
3010
0002
0103
,  // measure 26
0002
0103
2000
3010
,  // measure 27
0020
1030
0200
1300
,  // measure 28
0200
0301
0020
0031
,  // measure 29
0220
0000
0000
0330
,  // measure 30
2002
0000
0000
3003
,  // measure 31
2200
0000
0000
3300
,  // measure 32
0022
0000
0000
0033
,  // measure 33
0001
0001
0001
0001
,  // measure 34
1000
0001
1000
0000
0001
1000
0001
0000
,  // measure 35
1000
1000
1000
1000
,  // measure 36
0001
1000
0001
0000
1000
0001
1000
0000
,  // measure 37
1010
0001
0100
1000
,  // measure 38
0010
0000
0100
0100
,  // measure 39
1100
0001
0010
1000
,  // measure 40
0100
0000
0010
0100
,  // measure 41
0110
0000
0000
0010
0000
0000
0110
0000
,  // measure 42
0000
0001
0010
0100
,  // measure 43
1001
0000
0000
0001
0000
0000
1001
0000
,  // measure 44
0000
1000
0100
0001
,  // measure 45
0010
0000
0000
0011
0000
0000
0010
0000
,  // measure 46
0000
0001
0010
0100
,  // measure 47
0100
0000
0000
1100
0000
0000
0100
0000
,  // measure 48
0100
1000
0100
1000
,  // measure 49
0010
0000
0000
1001
0000
0000
0100
0000
,  // measure 50
0000
0100
1000
0010
,  // measure 51
0001
0000
0000
0011
0000
0000
0010
0000
,  // measure 52
0001
0000
0010
0000
0100
1000
0010
0000
,  // measure 53
0220
0000
0000
0000
,  // measure 54
0330
0000
0000
0000
;

//---------------dance-single - Chewi----------------
#NOTES:
     dance-single:
     Chewi:
     Hard:
     10:
     0.371,0.431,0.182,0.115,0.019: // measure 1
0000
0000
0000
0000
,  // measure 2
0000
0000
0000
0000
,  // measure 3
0000
0000
0000
0000
,  // measure 4
0000
0000
0000
0000
,  // measure 5
1000
0000
1000
0100
0000
0100
1000
0000
,  // measure 6
0010
0001
0100
1000
,  // measure 7
0010
0000
0100
0001
0000
0001
0100
0000
,  // measure 8
0001
0010
1000
0100
,  // measure 9
0010
0000
0100
0010
0000
0010
0100
0000
,  // measure 10
1000
0001
0100
0001
,  // measure 11
1000
0000
0010
1000
0000
1000
0010
0000
,  // measure 12
0100
0000
0000
0000
0001
0000
0000
0000
0010
0001
0000
0000
0011
0000
0000
0000
,  // measure 13
0001
0010
0100
0000
1000
0000
0100
0000
,  // measure 14
1000
0100
0010
0000
0001
0000
0010
0000
,  // measure 15
0001
1000
0010
0000
0100
0000
0100
0000
,  // measure 16
0001
1000
0100
0000
0010
0000
0010
0000
,  // measure 17
0001
0000
0010
0000
0100
1000
1000
0000
,  // measure 18
0010
0000
0100
0000
0001
0100
0100
0000
,  // measure 19
0010
0000
0100
0000
0001
1000
1000
0000
,  // measure 20
1000
0000
0000
0000
0100
0000
0000
0000
0010
0001
0000
0000
0011
0000
0000
0000
,  // measure 21
0001
0000
0010
0000
0100
1000
1000
0000
,  // measure 22
1000
0000
0010
0000
0100
0001
0001
0000
,  // measure 23
1000
0000
0001
0000
0010
0100
0010
0000
,  // measure 24
1000
0000
0001
0000
0100
0010
0100
0000
,  // measure 25
1000
0000
0010
0000
0100
0001
0001
0000
,  // measure 26
0001
0000
0010
0000
0100
1000
1000
0000
,  // measure 27
0001
0000
1000
0000
0100
0010
0100
0000
,  // measure 28
0001
0000
1000
0000
0010
0100
0010
0000
,  // measure 29
0200
0001
1000
0301
,  // measure 30
0020
0001
1000
0031
,  // measure 31
2000
0100
0001
3100
,  // measure 32
0002
0100
1000
0103
,  // measure 33
0100
0010
0100
0000
0001
0100
0001
0000
,  // measure 34
0001
0100
0000
0100
0001
0000
0010
0000
0100
0000
1000
0000
0010
0000
0000
0000
,  // measure 35
0100
0010
1000
0001
0010
0100
1000
0100
,  // measure 36
0010
0001
0010
0100
1000
0001
0100
0000
,  // measure 37
0102
0023
2030
3100
,  // measure 38
0100
1000
0010
0000
0001
0100
0010
0000
,  // measure 39
0102
0023
2030
3100
,  // measure 40
0010
0001
0100
0000
1000
0010
0100
0000
,  // measure 41
0001
1000
0100
0000
1000
0001
0100
0000
,  // measure 42
0010
1001
0010
0110
,  // measure 43
0100
1000
0010
0000
0001
0100
0010
0000
,  // measure 44
0010
0001
0100
0000
1000
0100
0010
0000
,  // measure 45
1100
0000
0000
0011
0000
0000
1100
0000
,  // measure 46
0000
0000
0001
0100
1000
0010
0001
0010
,  // measure 47
0110
0000
0000
1001
0000
0000
0110
0000
,  // measure 48
0000
0100
0010
0100
,  // measure 49
0101
0000
0000
1010
0000
0000
0101
0000
,  // measure 50
0000
0000
1000
0010
0001
0100
1000
0100
,  // measure 51
1100
0000
0000
0110
0000
0000
1001
0000
,  // measure 52
0001
0001
1000
1000
0001
1000
0010
0100
,  // measure 53
2002
0000
0000
0000
,  // measure 54
3003
0000
0000
0000
;
