#TITLE:Feel So Close;
#SUBTITLE:;
#ARTIST:Calvin Harris;
#TITLETRANSLIT:;
#SUBTITLETRANSLIT:;
#ARTISTTRANSLIT:;
#CREDIT:Chewi☆;
#BANNER:Feel So Close.png;
#BACKGROUND:Feel So Close-bg.png;
#LYRICSPATH:;
#CDTITLE:;
#MUSIC:Feel So Close.mp3;
#OFFSET:-1.140;
#SAMPLESTART:46.140;
#SAMPLELENGTH:15.000;
#SELECTABLE:YES;
#DISPLAYBPM:128.000;
#BPMS:0.000=128.000;
#STOPS:;
#BGCHANGES:;

//---------------dance-single - Chewi----------------
#NOTES:
     dance-single:
     Chewi:
     Easy:
     3:
     0.184,0.226,0.000,0.184,0.000: // measure 1
0000
0000
0000
0000
,  // measure 2
0000
0000
0000
0000
,  // measure 3
0000
0000
0000
0000
,  // measure 4
0000
0000
0000
0000
,  // measure 5
2000
0000
0000
3000
,  // measure 6
0002
0000
0000
0003
,  // measure 7
0200
0000
0000
0300
,  // measure 8
0200
0000
0000
0300
,  // measure 9
0002
0000
0000
0003
,  // measure 10
2000
0000
0000
3000
,  // measure 11
0020
0000
0000
0030
,  // measure 12
0020
0000
0000
0030
,  // measure 13
2000
0000
0000
3000
,  // measure 14
0200
0000
0000
0300
,  // measure 15
0020
0000
0000
0030
,  // measure 16
0002
0000
0000
0003
,  // measure 17
0001
0100
0001
0100
,  // measure 18
1000
0100
1000
0100
,  // measure 19
0001
0100
1000
0100
,  // measure 20
0001
0010
1000
0010
,  // measure 21
0010
0010
0010
0010
,  // measure 22
0100
0100
0100
0100
,  // measure 23
0001
0001
0001
0001
,  // measure 24
1000
1000
1000
1000
,  // measure 25
1000
0100
1000
0000
,  // measure 26
0001
0100
0001
0000
,  // measure 27
1000
0010
1000
0000
,  // measure 28
0001
0010
0001
0000
,  // measure 29
1000
0100
1000
0000
,  // measure 30
0001
0100
0001
0000
,  // measure 31
0100
0010
0100
0000
,  // measure 32
0010
0100
0010
0000
,  // measure 33
0010
1000
0100
0000
,  // measure 34
0010
0001
0100
0000
,  // measure 35
0010
1000
0100
0000
,  // measure 36
0010
0001
0100
0000
,  // measure 37
0001
1000
0100
0000
,  // measure 38
1000
0001
0100
0000
,  // measure 39
0001
1000
0100
0000
,  // measure 40
1000
0001
0100
0000
,  // measure 41
0200
0000
0000
0300
,  // measure 42
0020
0000
0000
0030
,  // measure 43
2000
0000
0000
3000
,  // measure 44
0002
0000
0000
0003
;

//---------------dance-single - Chewi----------------
#NOTES:
     dance-single:
     Chewi:
     Medium:
     6:
     0.220,0.276,0.023,0.184,0.000: // measure 1
0000
0000
0000
0000
,  // measure 2
0000
0000
0000
0000
,  // measure 3
0000
0000
0000
0000
,  // measure 4
0000
0000
0000
0000
,  // measure 5
0020
0000
0000
0000
,  // measure 6
0032
0000
0000
0000
,  // measure 7
0203
0000
0000
0000
,  // measure 8
2300
0000
0000
0000
,  // measure 9
3020
0000
0000
0000
,  // measure 10
0032
0000
0000
0000
,  // measure 11
0203
0000
0000
0000
,  // measure 12
2300
0000
0000
0000
,  // measure 13
3020
0000
0000
0000
,  // measure 14
0032
0000
0000
0000
,  // measure 15
0203
0000
0000
0000
,  // measure 16
2300
0000
0000
0000
,  // measure 17
3000
0010
0000
0010
0000
0010
0000
0010
,  // measure 18
0000
0100
0000
0100
0000
0100
0000
0100
,  // measure 19
0000
0001
0000
0001
0000
0001
0000
0001
,  // measure 20
0000
1000
0000
1000
0000
1000
0000
1000
,  // measure 21
0001
1000
0100
1001
,  // measure 22
1000
0001
0100
1001
,  // measure 23
1000
0010
0001
0100
,  // measure 24
1000
0010
0001
0010
,  // measure 25
0010
1000
0000
1000
0000
0010
0000
0010
,  // measure 26
0000
0100
0000
0100
0000
0001
0000
0001
,  // measure 27
0000
1000
0000
1000
0000
0100
0000
0100
,  // measure 28
0000
0010
0000
0010
0000
0001
0000
0001
,  // measure 29
0010
0100
0000
0100
0000
0010
0000
0010
,  // measure 30
0000
0001
0000
0001
0000
1000
0000
1000
,  // measure 31
0000
0100
0000
0100
0000
1000
0000
1000
,  // measure 32
0000
0001
0000
0001
0000
1000
0000
1000
,  // measure 33
0010
0100
0000
0100
0000
0010
0000
0010
,  // measure 34
0000
1000
0000
1000
0000
0100
0000
0100
,  // measure 35
0000
1000
0000
1000
0000
0010
0000
0010
,  // measure 36
0000
0100
0000
0100
0000
0001
0000
0001
,  // measure 37
0010
0001
0000
0001
0000
1000
0000
1000
,  // measure 38
0000
0100
0000
0100
0000
0010
0000
0010
,  // measure 39
0000
0100
0000
0100
0000
1000
0000
1000
,  // measure 40
0000
0001
0000
0001
0000
1000
0000
1000
,  // measure 41
0002
0000
0000
0000
,  // measure 42
0203
0000
0000
0000
,  // measure 43
0320
0000
0000
0000
,  // measure 44
2030
0000
0000
3000
;

//---------------dance-single - Chewi----------------
#NOTES:
     dance-single:
     Chewi:
     Hard:
     10:
     0.353,0.427,0.000,0.184,0.000: // measure 1
0000
0000
0000
0000
,  // measure 2
0000
0000
0000
0000
,  // measure 3
0000
0000
0000
0000
,  // measure 4
0000
0000
0000
0000
,  // measure 5
2000
0000
0000
0000
,  // measure 6
3200
0000
0000
0000
,  // measure 7
0302
0000
0000
0000
,  // measure 8
0023
0000
0000
0000
,  // measure 9
2030
0000
0000
0000
,  // measure 10
3200
0000
0000
0000
,  // measure 11
0320
0000
0000
0000
,  // measure 12
0032
0000
0000
0000
,  // measure 13
2003
0000
0000
0000
,  // measure 14
3020
0000
0000
0000
,  // measure 15
0230
0000
0000
0000
,  // measure 16
0302
0000
0000
0000
,  // measure 17
1003
0001
1000
0001
1000
0001
1000
0001
,  // measure 18
1000
0100
1000
0100
1000
0100
1000
0100
,  // measure 19
1000
0001
1000
0001
1000
0001
1000
0001
,  // measure 20
0010
0001
0010
0001
0010
0001
0010
0001
,  // measure 21
0010
0010
0100
0100
1000
1000
0001
0001
,  // measure 22
1000
1000
0001
0001
0100
0100
0010
0010
,  // measure 23
1000
1000
0010
0010
0100
0100
0001
0001
,  // measure 24
1000
1000
0100
0100
0010
0010
0001
0000
,  // measure 25
1000
0100
1000
0010
1000
0100
1000
0010
,  // measure 26
1000
0100
0010
0000
0001
0010
0100
0000
,  // measure 27
1000
0001
0100
0010
1000
0001
0010
0100
,  // measure 28
1000
0001
0010
0000
0001
1000
0100
0000
,  // measure 29
1000
0001
0100
0001
1000
0100
1000
0001
,  // measure 30
0100
0010
1000
0000
1000
0100
0010
0000
,  // measure 31
0001
1000
0100
1000
0001
0100
0001
0100
,  // measure 32
0010
0100
0001
0000
0010
0100
1000
0000
,  // measure 33
0001
0010
0001
0010
0100
1000
0100
1000
,  // measure 34
0001
0010
0100
1000
0001
0010
0100
1000
,  // measure 35
0001
0100
0001
0100
0010
1000
0010
1000
,  // measure 36
0001
0100
0010
1000
0001
0100
0010
1000
,  // measure 37
0001
1000
0001
1000
0100
0010
0100
0010
,  // measure 38
0001
1000
0100
0010
0001
1000
0100
0010
,  // measure 39
0001
0010
0001
0010
0100
1000
0100
1000
,  // measure 40
0001
0010
0100
1000
0001
0010
0100
1000
,  // measure 41
0002
0000
0000
0000
,  // measure 42
0203
0000
0000
0000
,  // measure 43
2300
0000
0000
0000
,  // measure 44
3020
0000
0000
0030
;

//---------------dance-single - Chewi----------------
#NOTES:
     dance-single:
     Chewi:
     Beginner:
     1:
     0.079,0.123,0.000,0.000,0.000: // measure 1
0000
0000
0000
0000
,  // measure 2
0000
0000
0000
0000
,  // measure 3
0000
0000
0000
0000
,  // measure 4
0000
0000
0000
0000
,  // measure 5
1000
0000
0000
0000
,  // measure 6
0001
0000
0000
0000
,  // measure 7
0100
0000
0000
0000
,  // measure 8
0100
0000
0000
0000
,  // measure 9
0001
0000
0000
0000
,  // measure 10
1000
0000
0000
0000
,  // measure 11
0010
0000
0000
0000
,  // measure 12
0010
0000
0000
0000
,  // measure 13
1000
0000
0000
0000
,  // measure 14
0100
0000
0000
0000
,  // measure 15
0010
0000
0000
0000
,  // measure 16
0001
0000
0000
0000
,  // measure 17
0001
0000
0001
0000
,  // measure 18
1000
0000
1000
0000
,  // measure 19
0001
0000
1000
0000
,  // measure 20
0001
0000
1000
0000
,  // measure 21
0010
0000
0010
0000
,  // measure 22
0100
0000
0100
0000
,  // measure 23
0001
0000
0001
0000
,  // measure 24
1000
0000
1000
0000
,  // measure 25
1000
0000
0000
0000
,  // measure 26
0001
0000
0000
0000
,  // measure 27
1000
0000
0000
0000
,  // measure 28
0001
0000
0000
0000
,  // measure 29
1000
0000
0000
0000
,  // measure 30
0001
0000
0000
0000
,  // measure 31
0100
0000
0000
0000
,  // measure 32
0010
0000
0000
0000
,  // measure 33
0010
0000
0000
0000
,  // measure 34
0010
0000
0000
0000
,  // measure 35
0100
0000
0000
0000
,  // measure 36
0100
0000
0000
0000
,  // measure 37
0001
0000
0000
0000
,  // measure 38
1000
0000
0000
0000
,  // measure 39
0001
0000
0000
0000
,  // measure 40
1000
0000
0000
0000
,  // measure 41
0100
0000
0000
0000
,  // measure 42
0010
0000
0000
0000
,  // measure 43
1000
0000
0000
0000
,  // measure 44
0001
0000
0000
0000
;
