#TITLE:Fallin' 4 U;
#SUBTITLE:;
#ARTIST:AISHA feat. DMC;
#TITLETRANSLIT:;
#SUBTITLETRANSLIT:;
#ARTISTTRANSLIT:;
#CREDIT:Chewi☆;
#BANNER:Fallin' 4 U.png;
#BACKGROUND:Fallin' 4 U-bg.png;
#LYRICSPATH:;
#CDTITLE:;
#MUSIC:Fallin' 4 U.mp3;
#OFFSET:-0.465;
#SAMPLESTART:62.399;
#SAMPLELENGTH:15.000;
#SELECTABLE:YES;
#BPMS:0.000=124.000;
#STOPS:;
#BGCHANGES:;

//---------------dance-single - Chewi----------------
#NOTES:
     dance-single:
     Chewi:
     Easy:
     4:
     0.188,0.220,0.061,0.293,0.000: // measure 1
0000
0000
0000
0000
,  // measure 2
0000
0000
0000
0000
,  // measure 3
0000
0000
0000
0000
,  // measure 4
0000
0000
0000
0000
,  // measure 5
2000
0000
0000
3000
,  // measure 6
0002
0000
0000
0003
,  // measure 7
2000
0000
0000
3000
,  // measure 8
0002
0000
0000
0003
,  // measure 9
0200
0000
0000
0300
,  // measure 10
0020
0000
0000
0030
,  // measure 11
0200
0000
0000
0300
,  // measure 12
0020
0000
0000
0030
,  // measure 13
0010
1000
0100
0000
,  // measure 14
0100
0000
0100
0000
,  // measure 15
0010
0001
0100
0000
,  // measure 16
0100
0000
0100
0000
,  // measure 17
0010
0010
0020
0000
,  // measure 18
0130
0100
0200
0000
,  // measure 19
0301
0001
0002
0000
,  // measure 20
2003
0000
3002
0000
,  // measure 21
1003
1000
2000
0000
,  // measure 22
3100
0100
0200
0000
,  // measure 23
0310
0010
0020
0000
,  // measure 24
0032
0000
2003
0000
,  // measure 25
3001
0000
1001
0000
,  // measure 26
0001
0010
0100
1000
,  // measure 27
0001
0000
1001
0000
,  // measure 28
0001
0100
0010
1000
,  // measure 29
0010
0000
0110
0000
,  // measure 30
0010
0100
0001
1000
,  // measure 31
0100
0000
0110
0000
,  // measure 32
0100
0010
0001
1000
,  // measure 33
0200
0000
0000
0000
,  // measure 34
0320
0000
0000
0000
,  // measure 35
0032
0000
0000
0000
,  // measure 36
1003
0100
0100
1000
,  // measure 37
2000
0000
0000
0000
,  // measure 38
3020
0000
0000
0000
,  // measure 39
0230
0000
0000
0000
,  // measure 40
0301
0100
0100
0001
,  // measure 41
1001
0000
0000
0000
;

//---------------dance-single - Chewi----------------
#NOTES:
     dance-single:
     Chewi:
     Hard:
     11:
     0.471,0.464,0.342,0.000,0.049: // measure 1
0000
0000
0000
0000
,  // measure 2
0000
0000
0000
0000
,  // measure 3
0000
0000
0000
0000
,  // measure 4
0000
0000
0000
0000
,  // measure 5
0010
0000
0001
0000
0100
0000
0001
0000
1000
0100
1000
0000
1100
0000
0000
0000
,  // measure 6
1000
0000
0010
0000
0100
0000
0001
0000
0100
0001
0100
0000
0101
0000
0000
0000
,  // measure 7
1000
0000
0001
0000
1000
0000
0100
0000
0010
0001
0010
0000
0011
0000
0000
0000
,  // measure 8
0010
0000
0001
0000
1000
0000
0100
0000
1000
0010
1000
0000
0101
0000
0000
0000
,  // measure 9
1000
0000
1000
0000
1000
0000
0001
0000
1000
0001
0100
0000
0101
0000
0000
0000
,  // measure 10
0010
0000
0010
0000
0010
0000
1000
0000
0001
1000
0100
0000
1100
0000
0000
0000
,  // measure 11
0001
0000
0001
0000
0001
0000
0100
0000
0001
1000
0010
0000
1010
0000
0000
0000
,  // measure 12
0100
0000
0100
0000
0100
0000
0001
0000
1000
0001
0010
0000
0011
0000
0000
0000
,  // measure 13
0001
1000
0001
1000
0010
0100
0010
0100
,  // measure 14
0001
1000
0100
1000
0001
0100
0001
1000
,  // measure 15
0100
1000
0100
0010
0001
0100
0001
0100
,  // measure 16
0001
1000
0100
1000
0100
0010
0001
0100
,  // measure 17
0010
0100
0001
0010
0000
0011
0000
0000
,  // measure 18
0010
0100
1000
0010
0000
1010
0000
0000
,  // measure 19
0010
0100
0001
1000
0000
1001
0000
1100
,  // measure 20
0000
0100
0010
0001
0010
0100
1000
0010
,  // measure 21
1000
0001
0010
0100
0000
1100
0000
0000
,  // measure 22
0100
1000
0001
0010
0000
0011
0000
0000
,  // measure 23
0100
0001
1000
0010
0000
1010
0000
0110
,  // measure 24
0000
1000
0010
0100
0001
0100
0010
1000
,  // measure 25
0000
0001
0010
0001
0010
0001
0100
0000
,  // measure 26
0000
0001
0100
0010
1000
0000
1010
0000
,  // measure 27
0000
1000
0010
1000
0010
1000
0100
0000
,  // measure 28
0000
1000
0100
0010
0001
0000
0011
0000
,  // measure 29
0000
1000
0010
1000
0010
1000
0100
0000
,  // measure 30
0000
0010
0001
1000
0100
0000
1001
0000
,  // measure 31
0000
0001
0100
0001
0100
0001
1000
0000
,  // measure 32
1001
0101
1001
1100
,  // measure 33
0001
1000
0001
1000
0010
0100
0010
0100
,  // measure 34
0001
1000
0100
1000
0001
0100
0001
1000
,  // measure 35
0100
1000
0100
0010
0001
0100
0001
0100
,  // measure 36
0001
0101
1000
1100
,  // measure 37
0010
1000
0010
1000
0100
1000
0100
1000
,  // measure 38
0001
0100
0001
0100
0010
1000
0001
0100
,  // measure 39
0010
1000
0100
1000
0010
1000
0100
1000
,  // measure 40
0010
0101
0010
1100
,  // measure 41
1001
0000
0000
0000
;

//---------------dance-single - Chewi----------------
#NOTES:
     dance-single:
     Chewi:
     Medium:
     8:
     0.326,0.317,0.061,0.293,0.000: // measure 1
0000
0000
0000
0000
,  // measure 2
0000
0000
0000
0000
,  // measure 3
0000
0000
0000
0000
,  // measure 4
0000
0000
0000
0000
,  // measure 5
2000
3100
0002
0103
,  // measure 6
2000
3100
0002
0103
,  // measure 7
2000
3010
0002
0013
,  // measure 8
2000
3010
0002
0013
,  // measure 9
1000
0000
0100
0000
1000
0100
1000
0000
,  // measure 10
0001
0000
0100
0000
0001
0100
0001
0000
,  // measure 11
1000
0000
0010
0000
1000
0010
1000
0000
,  // measure 12
0001
0000
0010
0000
0001
0010
0001
0000
,  // measure 13
0020
0130
0020
0031
,  // measure 14
0020
0130
0020
0031
,  // measure 15
2000
3100
2000
3010
,  // measure 16
2000
3001
2000
3100
,  // measure 17
1000
0001
1000
0001
0000
1000
0000
0000
,  // measure 18
0001
1000
0001
1000
0000
0001
0000
0000
,  // measure 19
1000
0100
1000
0100
0000
1000
0000
0010
,  // measure 20
0000
0100
0001
0000
0100
0001
0100
0000
,  // measure 21
0001
0100
0001
0100
0000
0001
0000
0000
,  // measure 22
0100
0010
0100
0010
0000
0100
0000
0000
,  // measure 23
0010
1000
0010
1000
0000
0010
0000
1000
,  // measure 24
0000
0000
0001
1000
0001
0000
1000
0000
,  // measure 25
0002
1000
0100
0013
,  // measure 26
2000
0100
0010
3001
,  // measure 27
0020
0100
1000
0130
,  // measure 28
0200
0001
0010
0310
,  // measure 29
0002
0010
1000
0103
,  // measure 30
2000
0001
0100
3001
,  // measure 31
0002
0010
0100
0013
,  // measure 32
0020
0001
0100
0031
,  // measure 33
0001
0000
1000
0000
0100
0100
0100
0000
,  // measure 34
0010
0100
1100
0000
,  // measure 35
1000
0000
0001
0000
0100
0100
0100
0000
,  // measure 36
0010
0100
0101
0000
,  // measure 37
0001
0000
1000
0000
0010
0010
0010
0000
,  // measure 38
1000
0001
1001
0000
,  // measure 39
1000
0000
0001
0000
0010
0010
0010
0000
,  // measure 40
0100
0010
0011
0000
,  // measure 41
1001
0000
0000
0000
;

//---------------dance-single - Chewi----------------
#NOTES:
     dance-single:
     Chewi:
     Beginner:
     2:
     0.105,0.122,0.012,0.000,0.000: // measure 1
0000
0000
0000
0000
,  // measure 2
0000
0000
0000
0000
,  // measure 3
0000
0000
0000
0000
,  // measure 4
0000
0000
0000
0000
,  // measure 5
1000
0000
0000
0000
,  // measure 6
0001
0000
0000
0000
,  // measure 7
1000
0000
0000
0000
,  // measure 8
0001
0000
0000
0000
,  // measure 9
0100
0000
0000
0000
,  // measure 10
0010
0000
0000
0000
,  // measure 11
0100
0000
0000
0000
,  // measure 12
0010
0000
0000
0000
,  // measure 13
0010
0000
0100
0000
,  // measure 14
0100
0000
0100
0000
,  // measure 15
0100
0000
0010
0000
,  // measure 16
0010
0000
0010
0000
,  // measure 17
0010
0000
0010
0000
,  // measure 18
0100
0000
0100
0000
,  // measure 19
0001
0000
0001
0000
,  // measure 20
1000
0000
0001
0000
,  // measure 21
1000
0000
1000
0000
,  // measure 22
0100
0000
0100
0000
,  // measure 23
0010
0000
0010
0000
,  // measure 24
0001
0000
1000
0000
,  // measure 25
0001
0000
1000
0000
,  // measure 26
0001
0000
0100
0000
,  // measure 27
1000
0000
0001
0000
,  // measure 28
0001
0000
0010
0000
,  // measure 29
0010
0000
0100
0000
,  // measure 30
0010
0000
0001
0000
,  // measure 31
0100
0000
0010
0000
,  // measure 32
0100
0000
0001
0000
,  // measure 33
0100
0000
0000
0000
,  // measure 34
0010
0000
0000
0000
,  // measure 35
0001
0000
0000
0000
,  // measure 36
1000
0000
0100
0000
,  // measure 37
1000
0000
0000
0000
,  // measure 38
0010
0000
0000
0000
,  // measure 39
0100
0000
0000
0000
,  // measure 40
0001
0000
1000
0000
,  // measure 41
1001
0000
0000
0000
;
