#VERSION:0.83;
#TITLE:Fall in Love;
#SUBTITLE:;
#ARTIST:Che'Nelle;
#TITLETRANSLIT:;
#SUBTITLETRANSLIT:;
#ARTISTTRANSLIT:;
#GENRE:Pop;
#ORIGIN:;
#CREDIT:chewi;
#BANNER:Fall in Love.png;
#BACKGROUND:Fall in Love-bg.png;
#PREVIEWVID:;
#JACKET:Fall in Love-jacket.png;
#CDIMAGE:;
#DISCIMAGE:;
#LYRICSPATH:;
#CDTITLE:cdtitle.png;
#MUSIC:Fall in Love.ogg;
#OFFSET:-0.461000;
#SAMPLESTART:54.761002;
#SAMPLELENGTH:15.000000;
#SELECTABLE:YES;
#BPMS:0.000=123.000;
#STOPS:;
#DELAYS:;
#WARPS:;
#TIMESIGNATURES:0.000=4=4;
#TICKCOUNTS:0.000=4;
#COMBOS:0.000=1;
#SPEEDS:0.000=1.000=0.000=0;
#SCROLLS:0.000=1.000;
#FAKES:;
#LABELS:0.000=Song Start;
#BGCHANGES:;
#KEYSOUNDS:;
#ATTACKS:
;

//---------------dance-single - ----------------
#NOTEDATA:;
#CHARTNAME:;
#STEPSTYPE:dance-single;
#DESCRIPTION:;
#CHARTSTYLE:;
#DIFFICULTY:Beginner;
#METER:1;
#RADARVALUES:0.078278,0.166849,0.021918,0.087671,0.000000,50.000000,48.000000,2.000000,8.000000,0.000000,0.000000,0.000000,0.000000,0.000000,0.078278,0.166849,0.021918,0.087671,0.000000,50.000000,48.000000,2.000000,8.000000,0.000000,0.000000,0.000000,0.000000,0.000000;
#CREDIT:;
#NOTES:
0000
0000
0000
0000
,
0000
0000
0000
0000
,
0000
0000
0000
0000
,
0000
0000
0000
0000
,
1000
0000
0000
0000
,
0001
0000
0000
0000
,
1000
0000
0000
0000
,
0001
0000
0000
0000
,
0200
0000
0000
0300
,
0100
0000
0000
0000
,
0100
0000
0000
0000
,
0010
0000
0000
0000
,
0020
0000
0000
0030
,
0010
0000
0000
0000
,
0100
0000
0000
0000
,
0010
0000
0000
0000
,
1000
0000
0000
0000
,
1000
0000
0000
0000
,
0001
0000
0000
0000
,
0001
0000
0000
0000
,
0010
0000
0000
0000
,
0010
0000
0000
0000
,
0100
0000
0000
0000
,
0100
0000
0000
0000
,
0020
0000
0000
0030
,
0200
0000
0000
0300
,
1000
0000
0000
0000
,
0001
0000
0000
0000
,
0002
0000
0000
0003
,
0001
0000
0001
0000
,
1000
0000
1000
0000
,
0000
0000
1001
0000
,
0200
0000
0000
0300
,
0100
0000
0100
0000
,
0010
0000
0010
0000
,
0000
0000
0110
0000
,
0010
0000
0010
0000
,
0010
0010
0010
0000
,
2000
0000
0000
0000
,
0000
0000
3000
0000
,
1000
0000
1000
0000
,
0001
0001
0001
0000
,
0002
0000
0000
0000
,
0000
0000
0003
0000
;

//---------------dance-single - ----------------
#NOTEDATA:;
#CHARTNAME:;
#STEPSTYPE:dance-single;
#DESCRIPTION:;
#CHARTSTYLE:;
#DIFFICULTY:Easy;
#METER:3;
#RADARVALUES:0.142466,0.192877,0.032877,0.087671,0.000000,91.000000,88.000000,3.000000,8.000000,0.000000,0.000000,0.000000,0.000000,0.000000,0.142466,0.192877,0.032877,0.087671,0.000000,91.000000,88.000000,3.000000,8.000000,0.000000,0.000000,0.000000,0.000000,0.000000;
#CREDIT:;
#NOTES:
0000
0000
0000
0000
,
0000
0000
0000
0000
,
0000
0000
0000
0000
,
0000
0000
0000
0000
,
0000
1000
0000
1000
,
0000
0001
0000
0001
,
0000
1000
0000
0001
,
0000
1000
0000
0001
,
0200
0000
0000
0300
,
0100
0100
0100
0000
,
0010
0000
0100
0000
,
0001
0000
1000
0000
,
0002
0000
0000
0003
,
0001
0001
0001
0000
,
1000
0000
0100
0000
,
0010
0000
0001
0000
,
0000
0010
0000
0010
,
0000
0100
0000
0100
,
0000
1000
0000
1000
,
1000
0000
0000
0000
,
0000
0001
0000
1000
,
0000
0010
0000
0100
,
0000
0001
0000
0100
,
0100
0000
0000
0000
,
0020
0000
0000
0130
,
0200
0000
0000
0310
,
0010
1000
0100
0000
,
0010
0001
0100
0000
,
0002
0000
1003
0000
,
1000
1000
1000
0000
,
0001
0001
0001
0000
,
1000
0001
1001
0000
,
0200
0000
0000
0300
,
0100
0100
0100
0000
,
0010
0010
0010
0000
,
0100
0010
0110
0000
,
0010
0000
0010
0000
,
0010
0010
0010
0000
,
2000
0000
0001
0000
,
0001
0000
3001
0000
,
0001
0000
0001
0000
,
1000
1000
1000
0000
,
0002
0000
1000
0000
,
1000
0000
1003
0000
,
1001
0000
0000
0000
;

//---------------dance-single - ----------------
#NOTEDATA:;
#CHARTNAME:;
#STEPSTYPE:dance-single;
#DESCRIPTION:;
#CHARTSTYLE:;
#DIFFICULTY:Medium;
#METER:5;
#RADARVALUES:0.242661,0.289315,0.109589,0.241096,0.000000,155.000000,145.000000,10.000000,22.000000,0.000000,0.000000,0.000000,0.000000,0.000000,0.242661,0.289315,0.109589,0.241096,0.000000,155.000000,145.000000,10.000000,22.000000,0.000000,0.000000,0.000000,0.000000,0.000000;
#CREDIT:;
#NOTES:
// measure 0
0000
0000
0000
0000
,  // measure 1
0000
0000
0000
0000
,  // measure 2
0000
0000
0000
0000
,  // measure 3
0000
0000
0000
0000
,  // measure 4
1000
0100
0010
0100
,  // measure 5
1000
1000
1000
0000
,  // measure 6
0001
0100
0010
0100
,  // measure 7
0001
0001
0001
0000
,  // measure 8
0002
0000
1003
0000
,  // measure 9
1000
1000
1000
0000
1000
0000
0000
0000
,  // measure 10
2000
0000
3001
0000
,  // measure 11
0001
0001
0001
0000
0001
0000
0000
0000
,  // measure 12
0200
0000
0310
0000
,  // measure 13
0010
0010
0010
0000
0010
0000
0000
0000
,  // measure 14
0020
0000
0130
0000
,  // measure 15
0100
0100
0100
0000
0100
0000
0000
0000
,  // measure 16
0100
0010
1000
0001
,  // measure 17
2000
0010
0001
3010
,  // measure 18
0001
0010
0100
1000
,  // measure 19
0002
1000
0100
1003
,  // measure 20
1000
0010
0100
0001
,  // measure 21
0200
0010
0001
0310
,  // measure 22
0100
0010
1000
0001
,  // measure 23
2000
0100
0010
3100
,  // measure 24
2000
0100
0100
3100
,  // measure 25
0002
0100
0100
0103
,  // measure 26
0100
0100
0010
0010
,  // measure 27
0220
0000
0000
0330
,  // measure 28
1010
0001
1000
0010
,  // measure 29
1001
1000
0100
1000
,  // measure 30
1001
0100
0001
0100
,  // measure 31
0200
0010
0010
0310
,  // measure 32
0110
1000
0001
1000
,  // measure 33
0110
0001
1000
0001
,  // measure 34
0101
1000
0100
1000
,  // measure 35
2000
0100
0100
3100
,  // measure 36
1000
0100
0010
0001
,  // measure 37
1000
0001
1001
0000
,  // measure 38
2000
3002
0203
0320
,  // measure 39
0100
0100
0130
0000
,  // measure 40
0100
0010
1000
0001
,  // measure 41
1000
0100
1100
0000
,  // measure 42
2000
3200
0320
0032
,  // measure 43
0010
1000
0100
0103
,  // measure 44
1001
0000
0000
0000
;

//---------------dance-single - ----------------
#NOTEDATA:;
#CHARTNAME:;
#STEPSTYPE:dance-single;
#DESCRIPTION:;
#CHARTSTYLE:;
#DIFFICULTY:Hard;
#METER:8;
#RADARVALUES:0.278669,0.318767,0.076712,0.405479,0.010959,178.000000,171.000000,7.000000,37.000000,0.000000,0.000000,0.000000,0.000000,0.000000,0.278669,0.318767,0.076712,0.405479,0.010959,178.000000,171.000000,7.000000,37.000000,0.000000,0.000000,0.000000,0.000000,0.000000;
#CREDIT:;
#NOTES:
0000
0000
0000
0000
,
0000
0000
0000
0000
,
0000
0000
0000
0000
,
0000
0000
0000
0000
,
1000
0010
0001
0100
,
1000
0010
0001
0000
,
0001
0010
1000
0100
,
0001
0010
1000
0000
,
2000
3000
1000
0000
,
1000
0100
0010
0001
1000
0000
0000
0000
,
0002
0003
0001
0000
,
0001
0100
0010
1000
0010
0000
0000
0000
,
0020
0030
0010
0000
,
0100
0010
1000
0001
1000
0000
0000
0000
,
0200
0300
0100
0000
,
0100
0010
0001
1000
0001
0000
0000
0000
,
2000
0000
3100
0000
0001
0100
0010
0000
,
0200
0000
0301
0000
0010
0001
0100
0000
,
0010
0010
0010
0000
0100
0100
0100
0000
,
0010
1000
0100
0001
,
0020
0000
1030
0000
0001
0010
0100
0000
,
2000
0000
3100
0000
0010
0001
1000
0000
,
1000
1000
1000
0000
0001
0001
0001
0000
,
0100
1000
0010
0001
,
0100
0000
0000
0100
0000
0000
0100
0000
0100
0000
0000
0000
0100
0000
0000
0000
,
0010
0000
0000
0010
0000
0000
0010
0000
0010
0000
0000
0000
0010
0000
0000
0000
,
1000
0100
0010
0000
0001
0010
0100
0000
,
2002
0000
0000
0000
0000
0000
3003
0002
,
0000
0100
0000
0013
0000
0001
0010
0100
,
0000
2000
0000
0100
0000
3010
0000
0002
,
0000
0100
0000
0010
0000
0103
0010
2000
,
0000
3001
1000
0002
0000
1003
0000
2000
,
0000
0100
0000
3010
0000
1000
0100
0020
,
0000
0001
0000
0130
0000
0001
0010
0002
,
0000
0100
0000
0010
0000
0103
0010
2000
,
0000
3001
1000
0002
0000
0000
0003
0000
,
2000
0000
3010
0100
0001
0100
0010
0000
,
0110
1001
0110
0000
,
0020
2030
3200
0302
,
0203
2300
3002
0003
,
0020
0000
0031
0010
0100
1000
0001
0000
,
1001
0110
1001
0000
,
0020
0032
0203
2300
,
3020
0000
0230
0000
0302
0000
0013
0020
,
0000
0000
0000
0030
;
