#TITLE:FUTURE;
#SUBTITLE:;
#ARTIST:★STAR GUiTAR;
#TITLETRANSLIT:;
#SUBTITLETRANSLIT:;
#ARTISTTRANSLIT:STAR GUiTAR;
#GENRE:;
#CREDIT:Chewi☆;
#MENUCOLOR:#FFFFFF;
#METERTYPE:DDR X;
#BANNER:FUTURE.png;
#BACKGROUND:FUTURE-bg.png;
#LYRICSPATH:;
#CDTITLE:./CDTITLES/DanceDanceRevolution skyMIX3 -breeze-.png;
#MUSIC:FUTURE.mp3;
#OFFSET:-0.598;
#SAMPLESTART:81.856;
#SAMPLELENGTH:15.000;
#SELECTABLE:YES;
#LISTSORT:;
#DISPLAYBPM:130.000;
#BPMS:0.000=130.000;
#STOPS:;
#BGCHANGES:0.000=FUTURE.avi=1.000=1=0=0,
240.000=FUTURE-bg.png=1.000=1=0=1,
99999=-nosongbg-=1.000=0=0=0 // don't automatically add -songbackground-
;
#ATTACKS:;

//---------------dance-single - Chewi----------------
#NOTES:
     dance-single:
     Chewi:
     Beginner:
     1:
     0.121,0.155,0.017,0.069,0.000: // measure 1
0000
0000
0000
0000
,  // measure 2
0000
0000
0000
0000
,  // measure 3
0000
0000
0000
0000
,  // measure 4
0000
0000
0000
0000
,  // measure 5
1000
0000
1000
0000
,  // measure 6
0001
0000
0001
0000
,  // measure 7
0001
0000
0001
0000
,  // measure 8
0100
0000
0100
0000
,  // measure 9
2000
0000
0000
3000
,  // measure 10
1000
0000
0000
0000
,  // measure 11
0010
0000
0010
0000
,  // measure 12
0010
0000
0000
0000
,  // measure 13
0002
0000
0000
0003
,  // measure 14
0001
0000
0000
0000
,  // measure 15
0100
0000
0100
0000
,  // measure 16
0100
0000
0000
0000
,  // measure 17
0001
0000
1000
0000
,  // measure 18
1000
0000
0010
0000
,  // measure 19
0001
0000
1000
0000
,  // measure 20
0100
0000
0001
0000
,  // measure 21
0100
0000
1000
0000
,  // measure 22
0001
0000
0100
0000
,  // measure 23
0100
0000
0001
0000
,  // measure 24
1000
0000
0100
0000
,  // measure 25
1001
0000
0000
0000
,  // measure 26
1000
0000
0000
0000
,  // measure 27
0001
0000
0000
0000
,  // measure 28
0010
0000
0010
0000
,  // measure 29
0010
0000
0000
0000
,  // measure 30
0100
0000
0000
0000
,  // measure 31
0010
0000
0000
0000
,  // measure 32
0001
0000
0001
0000
,  // measure 33
0001
0000
0000
0000
,  // measure 34
1000
0000
1000
0000
,  // measure 35
1000
0000
0001
0000
,  // measure 36
0001
0000
1000
0000
,  // measure 37
0001
0000
0010
0000
,  // measure 38
0010
0000
0010
0000
,  // measure 39
1000
0000
0100
0000
,  // measure 40
0100
0000
0100
0000
,  // measure 41
2000
0000
0000
3000
,  // measure 42
1000
0000
0000
0000
,  // measure 43
0002
0000
0000
0003
,  // measure 44
0001
0000
0000
0000
,  // measure 45
1000
0000
0010
0000
,  // measure 46
0001
0000
0100
0000
,  // measure 47
1000
0000
0010
0000
,  // measure 48
1000
0000
0001
0000
,  // measure 49
0010
0000
0001
0000
,  // measure 50
0100
0000
1000
0000
,  // measure 51
0010
0000
1000
0000
,  // measure 52
0010
0000
1000
0000
,  // measure 53
2000
0000
0000
3000
,  // measure 54
1000
0000
0000
0000
,  // measure 55
0002
0000
0000
0003
,  // measure 56
0001
0000
0000
0000
,  // measure 57
0020
0000
0000
0030
,  // measure 58
0010
0000
0000
0000
,  // measure 59
0200
0000
0000
0300
,  // measure 60
0100
0000
0000
0000
,  // measure 61
1001
0000
0000
0000
;

//---------------dance-single - Chewi----------------
#NOTES:
     dance-single:
     Chewi:
     Easy:
     4:
     0.221,0.259,0.052,0.121,0.000: // measure 1
0000
0000
0000
0000
,  // measure 2
0000
0000
0000
0000
,  // measure 3
0000
0000
0000
0000
,  // measure 4
0000
0000
0000
0000
,  // measure 5
1000
0100
1000
0000
,  // measure 6
0001
0010
0001
0000
,  // measure 7
0001
1000
0001
0000
,  // measure 8
0100
0010
0100
0000
,  // measure 9
2000
0000
0000
3000
,  // measure 10
0100
0000
0000
0000
,  // measure 11
0010
0000
0100
0000
,  // measure 12
0110
0000
1001
0000
,  // measure 13
0002
0000
0000
0003
,  // measure 14
0100
0000
0000
0000
,  // measure 15
0010
0000
1000
0000
,  // measure 16
1001
0000
0110
0000
,  // measure 17
0001
0100
1000
0000
,  // measure 18
1000
0010
0010
0000
,  // measure 19
0001
0010
1000
0000
,  // measure 20
0100
0001
0001
0000
,  // measure 21
0100
0010
1000
0000
,  // measure 22
0001
0010
0100
0000
,  // measure 23
0100
0010
0001
0000
,  // measure 24
1000
0010
0100
0000
,  // measure 25
2002
0000
0000
3003
,  // measure 26
1000
1000
1000
1000
,  // measure 27
0001
0001
0001
0001
,  // measure 28
0010
0100
0010
0100
,  // measure 29
0220
0000
0000
0330
,  // measure 30
0100
0100
0100
0100
,  // measure 31
0010
0010
0010
0010
,  // measure 32
0001
1000
0001
1000
,  // measure 33
0001
0100
1000
0010
,  // measure 34
1000
0000
1000
0000
,  // measure 35
1000
0100
0001
0010
,  // measure 36
0001
0000
1000
0000
,  // measure 37
0001
1000
0010
0100
,  // measure 38
0010
0000
0010
0000
,  // measure 39
1000
0001
0100
0010
,  // measure 40
0100
0000
0100
0000
,  // measure 41
2000
0000
0000
3000
,  // measure 42
0200
0000
0000
0300
,  // measure 43
0002
0000
0000
0003
,  // measure 44
2000
0000
0000
3000
,  // measure 45
1000
0100
0010
0001
,  // measure 46
0000
1000
0001
1000
,  // measure 47
0001
0100
0010
1000
,  // measure 48
0000
1000
0001
1000
,  // measure 49
0010
1000
0100
0001
,  // measure 50
0000
0010
0100
0010
,  // measure 51
0010
0001
0100
1000
,  // measure 52
0000
0010
0100
0010
,  // measure 53
2000
0100
0010
0001
,  // measure 54
0000
0001
0100
3010
,  // measure 55
0002
0100
1000
0010
,  // measure 56
0000
0010
0010
0013
,  // measure 57
0020
0100
1000
0100
,  // measure 58
0000
0100
0100
0130
,  // measure 59
0200
0001
0010
0010
,  // measure 60
0000
1000
0001
1000
,  // measure 61
0301
0000
0000
0000
;

//---------------dance-single - Chewi----------------
#NOTES:
     dance-single:
     Chewi:
     Medium:
     8:
     0.310,0.337,0.043,0.207,0.000: // measure 1
0000
0000
0000
0000
,  // measure 2
0000
0000
0000
0000
,  // measure 3
0000
0000
0000
0000
,  // measure 4
0000
0000
0000
0000
,  // measure 5
1000
0100
0010
0001
,  // measure 6
1000
0010
0100
0001
,  // measure 7
1000
0100
0001
0010
,  // measure 8
0001
0100
1000
0010
,  // measure 9
0220
0000
0000
0030
,  // measure 10
0020
0000
0000
0330
,  // measure 11
0010
0000
0100
0000
0010
0100
0010
0000
,  // measure 12
1000
0000
0001
0000
1000
0001
1000
0000
,  // measure 13
2002
0000
0000
3000
,  // measure 14
2000
0000
0000
3003
,  // measure 15
0001
1000
0001
0000
0100
0000
0100
0000
,  // measure 16
0010
0100
0010
0000
0010
0000
0010
0000
,  // measure 17
2000
3100
0020
0130
,  // measure 18
0002
0013
0200
1300
,  // measure 19
0002
0103
0020
0130
,  // measure 20
2000
3010
0200
0301
,  // measure 21
0200
0310
0002
0013
,  // measure 22
0020
1030
0200
0301
,  // measure 23
0200
1300
2000
3100
,  // measure 24
0001
0010
1000
0100
,  // measure 25
0010
0000
0100
0000
0010
0100
0010
0000
,  // measure 26
0001
0010
0100
1000
,  // measure 27
0010
0001
0100
0100
,  // measure 28
0001
0010
1000
1000
,  // measure 29
1000
0000
0001
0000
0010
0100
0010
0000
,  // measure 30
0001
0010
1000
0100
,  // measure 31
0001
0100
1000
1000
,  // measure 32
0100
0001
0010
0010
,  // measure 33
0001
0010
0001
0000
1000
0000
0010
0000
,  // measure 34
1000
0010
1000
0000
1000
0000
0100
0000
,  // measure 35
1000
0100
1000
0000
0001
0000
0100
0000
,  // measure 36
0001
0100
0001
0000
0001
0000
1001
0000
,  // measure 37
0001
0010
0001
0000
0100
0000
1000
0000
,  // measure 38
0010
1000
0010
0000
1000
0000
0100
0000
,  // measure 39
0001
1000
0010
0110
,  // measure 40
0100
0010
1000
1001
,  // measure 41
0002
0000
0000
0000
,  // measure 42
0023
0000
0000
0000
,  // measure 43
0230
0000
0000
0000
,  // measure 44
2300
0000
0000
0000
,  // measure 45
3001
0000
0001
0000
0001
0001
0001
0000
,  // measure 46
0100
0010
0100
0010
,  // measure 47
1000
0000
1000
0000
1000
1000
1000
0000
,  // measure 48
0100
0010
0100
0010
,  // measure 49
0010
0001
1000
0010
,  // measure 50
0100
0000
0001
0000
1000
0001
1000
0000
,  // measure 51
0001
0010
0100
1000
,  // measure 52
0010
0000
0001
0000
0010
1000
0010
0000
,  // measure 53
1000
0100
0001
0100
,  // measure 54
0010
0000
1000
0000
0001
0010
0100
0000
,  // measure 55
1000
0100
0010
0001
,  // measure 56
1000
0000
0010
0000
0100
0100
0100
0000
,  // measure 57
0010
1000
0100
0010
,  // measure 58
0001
0000
0100
0000
1000
0010
1000
0000
,  // measure 59
0010
0100
0001
1000
,  // measure 60
0100
0000
0010
0000
0001
1000
0001
1000
,  // measure 61
0001
0000
0000
0000
;

//---------------dance-single - Chewi----------------
#NOTES:
     dance-single:
     Chewi:
     Hard:
     10:
     0.398,0.440,0.069,0.069,0.009: // measure 1
0000
0000
0000
0000
,  // measure 2
0000
0000
0000
0000
,  // measure 3
0000
0000
0000
0000
,  // measure 4
0000
0000
0000
0000
,  // measure 5
1000
0000
0001
1000
0001
0000
0010
0000
,  // measure 6
0000
0100
0010
0001
0010
0100
1000
0000
,  // measure 7
0010
0000
0100
0010
0100
0000
0010
0000
,  // measure 8
0000
1000
0010
0100
0001
0010
0100
1000
,  // measure 9
2001
0000
0000
0000
0000
0000
0000
0000
0000
0000
0001
0000
0000
0010
0000
0000
,  // measure 10
0002
0000
0000
3003
,  // measure 11
0010
0100
0001
0000
0010
0100
1000
0000
,  // measure 12
0001
1000
0100
0000
1000
0001
0100
0000
,  // measure 13
1002
0000
0000
0000
0000
0000
0000
0000
0000
0000
1000
0000
0000
0010
0000
0000
,  // measure 14
2000
0000
0000
3003
,  // measure 15
0010
1000
0100
0000
1000
0001
0100
0000
,  // measure 16
0100
0001
0010
0000
0001
1000
0010
0000
,  // measure 17
1000
0001
1000
0001
1000
0100
1000
0100
,  // measure 18
0010
0100
0010
0100
0010
0001
0010
0001
,  // measure 19
0010
0001
0100
0001
0010
0100
1000
0010
,  // measure 20
1000
0100
1000
0010
1000
0100
0010
0001
,  // measure 21
1000
0001
1000
0001
0100
0010
0100
0010
,  // measure 22
1000
0010
1000
0010
0100
0001
0100
0001
,  // measure 23
1000
0100
0010
0001
1000
0100
0010
0001
,  // measure 24
1000
0010
0100
0001
1000
0010
0100
0001
,  // measure 25
0100
1010
0100
0011
,  // measure 26
0001
1000
0100
0000
1000
0001
0010
0000
,  // measure 27
0001
0000
1000
0000
0010
0001
0100
0000
,  // measure 28
0001
0000
0100
0000
1000
0010
0001
0000
,  // measure 29
0010
0000
1000
0000
0100
0001
1000
0000
,  // measure 30
0100
0000
0010
0000
0001
0010
0100
0000
,  // measure 31
1000
0000
0100
0000
0010
1000
0100
0000
,  // measure 32
0010
0000
0100
0000
0010
0001
0100
0000
,  // measure 33
0010
0100
0010
0100
0010
1000
0010
1000
,  // measure 34
0100
1000
0100
1000
0100
0001
0100
0001
,  // measure 35
0100
1000
0001
0100
0010
0010
0010
0000
,  // measure 36
0100
0100
0100
0000
0001
0001
0001
0000
,  // measure 37
0001
0010
0001
0010
0100
0010
0100
0010
,  // measure 38
0001
0010
0001
0010
0100
0010
0100
0010
,  // measure 39
0100
1000
0100
1000
0010
1000
0010
1000
,  // measure 40
0100
1000
0100
1000
0010
1000
0010
1000
,  // measure 41
0020
0000
0000
0000
,  // measure 42
2030
0000
0000
0000
,  // measure 43
3200
0000
0000
0000
,  // measure 44
0302
0000
0000
0000
,  // measure 45
0013
0000
0001
0010
0100
1000
0100
0000
,  // measure 46
1000
1000
0001
0001
,  // measure 47
0010
1000
0100
0001
,  // measure 48
0010
0001
0100
1000
,  // measure 49
0010
0000
1000
0010
0100
0001
0100
0000
,  // measure 50
0010
1000
0100
0001
,  // measure 51
0010
0001
0100
1000
,  // measure 52
0010
0100
0001
1000
,  // measure 53
0001
0010
0100
1000
0100
0000
0010
0000
,  // measure 54
0001
0100
1000
0000
0010
1000
0100
0000
,  // measure 55
0010
1100
0010
0101
,  // measure 56
0001
0001
0001
0000
1000
1000
1000
0000
,  // measure 57
0001
0100
0010
1000
0001
0000
1000
0000
,  // measure 58
1000
0100
0001
0000
0001
0100
1000
0000
,  // measure 59
1000
1010
0001
0011
,  // measure 60
0100
0100
0010
0010
1000
0001
0010
0100
,  // measure 61
1000
0000
0000
0000
;
