#TITLE:フィガロの結婚 (Ryu☆ Remix);
#SUBTITLE:;
#ARTIST:Ryu☆;
#TITLETRANSLIT:FIGARO NO KEKKON (Ryu Remix);
#SUBTITLETRANSLIT:;
#ARTISTTRANSLIT:Ryu;
#GENRE:;
#CREDIT:Chewi☆;
#MENUCOLOR:;
#METERTYPE:DDR X;
#BANNER:FIGARO NO KEKKON (Ryu Remix).png;
#BACKGROUND:FIGARO NO KEKKON (Ryu Remix)-bg.png;
#LYRICSPATH:;
#CDTITLE:;
#MUSIC:FIGARO NO KEKKON (Ryu Remix).mp3;
#OFFSET:-0.525;
#SAMPLESTART:11.721;
#SAMPLELENGTH:15.000;
#SELECTABLE:YES;
#LISTSORT:;
#DISPLAYBPM:150.000;
#BPMS:0.000=150.000;
#STOPS:;
#BGCHANGES:;
#ATTACKS:;

//---------------dance-single - Chewi----------------
#NOTES:
     dance-single:
     Chewi:
     Hard:
     11:
     0.546,0.568,0.297,0.227,0.052: // measure 1
0000
0000
0000
0000
,  // measure 2
0000
0000
0000
0000
,  // measure 3
0000
0000
0000
0000
,  // measure 4
0000
0000
0000
0000
,  // measure 5
2000
0000
0000
3100
0010
0001
0100
0010
,  // measure 6
0200
0000
0000
0310
0100
0001
1000
0001
,  // measure 7
1002
0000
0000
0000
0013
0000
0000
0000
0001
1000
0001
1000
0001
0000
0000
0000
,  // measure 8
2200
3300
0022
0033
,  // measure 9
0001
0010
0100
0000
0001
0010
0100
0000
,  // measure 10
0001
1000
0100
0000
1000
0100
0010
0000
,  // measure 11
0001
1000
0010
0100
0001
1000
0100
0010
,  // measure 12
0100
1000
0010
0000
0100
0001
0010
0000
,  // measure 13
0100
0010
0001
0000
1000
0010
1000
0000
,  // measure 14
0010
0100
0001
0000
0100
0010
1000
0000
,  // measure 15
0002
0000
0000
0103
0010
1000
0100
0010
,  // measure 16
0002
0000
0000
0013
0100
1000
0010
1000
,  // measure 17
2200
3300
0022
0033
,  // measure 18
0101
1100
0101
0011
,  // measure 19
1010
0000
0000
0010
1000
0000
0000
1000
0100
0000
0000
0100
0010
0000
0000
0010
,  // measure 20
0001
0010
0100
1000
0001
0010
0100
1000
,  // measure 21
2001
0000
3100
0000
0100
0010
0100
0000
,  // measure 22
0012
0000
0103
0000
0001
0010
0100
0000
,  // measure 23
2010
0000
3100
0000
0100
0010
0100
0000
,  // measure 24
0010
0100
1000
0001
0010
0100
1000
0001
,  // measure 25
2200
0000
3300
0010
0022
0000
0033
0001
,  // measure 26
2002
0000
3003
1000
0001
1000
0010
1000
,  // measure 27
0010
0000
0000
0010
1000
0000
0000
1000
0100
0000
0000
0100
0001
0000
0000
0001
,  // measure 28
0010
0011
0110
1100
,  // measure 29
1000
0110
0011
1001
,  // measure 30
1000
0010
0001
0010
1000
0100
0001
0100
,  // measure 31
1000
0001
0100
0010
1000
0001
0100
0000
,  // measure 32
0010
0100
0001
0100
0000
0100
0001
1000
,  // measure 33
1000
1100
1001
0101
,  // measure 34
1000
0100
0010
0100
0000
0100
0010
0001
,  // measure 35
0011
1001
0110
1001
,  // measure 36
0001
0100
0010
0001
0000
0010
1000
0001
,  // measure 37
0000
0010
0100
1000
0010
1000
0010
0000
,  // measure 38
1000
0100
0010
0001
0000
0100
0001
0100
,  // measure 39
1000
0100
1000
0100
0001
0010
0001
0000
,  // measure 40
1000
0001
1000
0001
1000
0100
1000
0000
,  // measure 41
0001
0010
0100
1000
0001
0010
0100
0000
,  // measure 42
0001
1000
0001
0100
0001
1000
0001
0000
,  // measure 43
1000
0010
0100
0001
1000
0010
0100
0000
,  // measure 44
0001
1000
0001
1000
0100
1000
0100
0000
,  // measure 45
1000
0001
1000
0001
0100
0001
0100
0001
,  // measure 46
0100
0100
0010
0010
1000
1000
0001
0001
,  // measure 47
2001
0100
0002
3003
,  // measure 48
0001
0010
0100
1000
0100
0001
0100
0010
,  // measure 49
0100
0001
0010
0100
1000
0010
1000
0100
,  // measure 50
1000
0010
0100
0001
0100
0010
1000
0001
,  // measure 51
1000
0100
0010
0001
1000
0100
0001
0100
,  // measure 52
1000
0010
0100
0001
1000
0010
0100
0001
,  // measure 53
1000
0100
0010
0001
1000
0100
0001
0100
,  // measure 54
1000
0001
0100
0010
1000
0001
0010
0100
,  // measure 55
1000
0000
1000
0000
0001
0000
0001
0000
1000
0100
1000
0100
1000
0000
0000
0000
,  // measure 56
0001
0010
0100
1000
0001
0000
1100
0000
,  // measure 57
1000
0001
1000
0000
0001
1000
0001
0000
,  // measure 58
1000
0010
0100
0001
0100
0000
0101
0000
,  // measure 59
0001
0100
0001
0000
0100
0010
0100
0000
,  // measure 60
0010
0100
0001
1000
0100
0000
1100
0000
,  // measure 61
1000
0100
1000
0000
0001
0010
0001
0000
,  // measure 62
1000
1000
0001
0001
0010
0010
0100
0100
,  // measure 63
1000
0010
0001
0010
1000
0100
0001
0100
,  // measure 64
2002
0000
0000
0000
,  // measure 65
0000
0000
0000
0000
,  // measure 66
3003
0000
0000
0000
;

//---------------dance-single - Chewi----------------
#NOTES:
     dance-single:
     Chewi:
     Medium:
     7:
     0.316,0.426,0.166,0.070,0.000: // measure 1
0000
0000
0000
0000
,  // measure 2
0000
0000
0000
0000
,  // measure 3
0000
0000
0000
0000
,  // measure 4
0000
0000
0000
0000
,  // measure 5
2000
0000
0010
3100
,  // measure 6
0002
0000
0100
0013
,  // measure 7
0220
0000
0000
0330
,  // measure 8
0100
0100
0100
0100
,  // measure 9
0010
0010
0010
0010
,  // measure 10
0001
1000
0010
0100
,  // measure 11
0001
1000
0100
0010
,  // measure 12
0001
0001
0001
0001
,  // measure 13
1000
1000
1000
1000
,  // measure 14
1000
0010
0001
0100
,  // measure 15
0001
0010
1000
0100
,  // measure 16
0220
0000
0000
0330
,  // measure 17
0100
0000
0100
0000
,  // measure 18
0100
0010
0100
0000
0010
0100
0010
0000
,  // measure 19
0001
0000
1001
0000
,  // measure 20
1000
0000
1001
0000
,  // measure 21
0010
0000
0010
0000
,  // measure 22
0010
0100
0010
0000
0100
0000
0000
0000
,  // measure 23
0100
0000
0100
0000
,  // measure 24
1001
0000
0110
0000
,  // measure 25
1001
0000
0000
1000
0001
0000
0000
0001
,  // measure 26
1000
0000
0000
1000
0001
0000
0000
0000
,  // measure 27
1000
0010
0100
0001
,  // measure 28
1000
0100
0010
0001
,  // measure 29
1000
0100
1000
0000
0010
0000
0010
0000
,  // measure 30
0001
0100
0001
0000
0010
0000
0010
0000
,  // measure 31
1000
1000
0100
0100
,  // measure 32
0001
0100
0010
1000
,  // measure 33
0001
0100
1000
0000
,  // measure 34
1000
0100
0010
0001
,  // measure 35
1000
0010
0100
0000
,  // measure 36
0001
0101
1000
0010
,  // measure 37
1000
0001
0000
0000
,  // measure 38
0001
0011
0100
1000
,  // measure 39
0010
0100
0000
0000
,  // measure 40
1000
0100
1000
0000
0001
0000
0100
0000
,  // measure 41
0001
0100
0001
0000
1000
0000
0010
0000
,  // measure 42
0100
0010
0100
0000
0001
0000
0010
0000
,  // measure 43
0100
0010
0100
0000
0010
0000
0001
0000
,  // measure 44
1000
0100
1000
0000
0001
0000
0100
0000
,  // measure 45
0010
0100
0001
0000
0100
0000
0010
0000
,  // measure 46
1000
0001
1000
0000
0001
1000
0001
0000
,  // measure 47
1001
1001
1000
0000
,  // measure 48
1000
0000
0010
0000
0001
0010
1000
0000
,  // measure 49
0100
0001
0010
1000
,  // measure 50
0100
0000
0001
0000
0001
0100
1000
0000
,  // measure 51
1000
0010
0100
1000
,  // measure 52
0001
0000
1000
0000
0010
0100
0010
0000
,  // measure 53
0100
0010
1000
0100
,  // measure 54
1000
0000
0100
0000
0001
0100
1000
0000
,  // measure 55
1010
0011
1010
0011
,  // measure 56
1002
0100
0100
0103
,  // measure 57
1000
0010
1000
0000
0001
0000
0100
0000
,  // measure 58
0001
0010
0100
1000
,  // measure 59
0010
0100
0010
0000
1000
0000
0100
0000
,  // measure 60
0011
1000
0010
0100
,  // measure 61
0001
0100
0001
0000
1000
0000
0100
0000
,  // measure 62
0110
0000
1001
0000
,  // measure 63
0010
0001
0100
1000
,  // measure 64
0020
0000
0000
0000
,  // measure 65
0000
0000
0000
0000
,  // measure 66
0030
0000
0000
0000
;

//---------------dance-single - Chewi----------------
#NOTES:
     dance-single:
     Chewi:
     Easy:
     5:
     0.253,0.284,0.148,0.183,0.000: // measure 1
0000
0000
0000
0000
,  // measure 2
0000
0000
0000
0000
,  // measure 3
0000
0000
0000
0000
,  // measure 4
0000
0000
0000
0000
,  // measure 5
2000
0000
0000
3000
,  // measure 6
0002
0000
0000
0003
,  // measure 7
2002
0000
0000
3003
,  // measure 8
0001
0100
0010
0000
,  // measure 9
0001
0100
1000
0000
,  // measure 10
1000
0010
0100
0000
,  // measure 11
1000
0010
0001
0000
,  // measure 12
0010
0100
0010
0000
,  // measure 13
0001
1000
0001
0000
,  // measure 14
0100
0010
0100
0000
,  // measure 15
0001
0100
1000
0100
,  // measure 16
0002
0000
2000
3003
,  // measure 17
1001
0000
1001
0000
,  // measure 18
1000
0001
1000
0001
,  // measure 19
0100
0010
0100
0010
,  // measure 20
0001
0010
1000
0100
,  // measure 21
0110
0000
0110
0000
,  // measure 22
0010
0100
0010
0000
,  // measure 23
1001
0000
1001
0000
,  // measure 24
1000
0001
1000
0000
,  // measure 25
2000
0000
3020
0000
,  // measure 26
2030
0000
3200
0000
,  // measure 27
0301
0001
0010
0010
,  // measure 28
1000
1000
0100
0100
,  // measure 29
0010
0001
0010
0100
,  // measure 30
1000
0100
0010
0100
,  // measure 31
1000
1000
0001
0001
,  // measure 32
1001
0000
1000
0000
,  // measure 33
0001
1000
0010
0100
,  // measure 34
0110
0000
0010
0000
,  // measure 35
0100
0010
1000
0001
,  // measure 36
1001
0000
1000
0000
,  // measure 37
1000
0001
0010
0100
,  // measure 38
0110
0000
0100
0000
,  // measure 39
0010
0100
1000
0001
,  // measure 40
2000
0000
0010
3010
,  // measure 41
0001
0000
0100
0000
,  // measure 42
0002
0000
0100
0103
,  // measure 43
1000
0000
0100
0000
,  // measure 44
0020
0000
0100
0130
,  // measure 45
0100
0000
0010
0000
,  // measure 46
0020
0000
0001
0031
,  // measure 47
0001
1000
0001
0000
,  // measure 48
1010
0000
0100
0000
,  // measure 49
0001
0010
0100
1000
,  // measure 50
1100
0000
0100
0000
,  // measure 51
0010
0001
0100
0010
,  // measure 52
0011
0000
0010
0000
,  // measure 53
0010
0100
1000
0010
,  // measure 54
0110
0000
1000
0001
,  // measure 55
1001
0000
0001
1000
,  // measure 56
0200
0000
0000
0300
,  // measure 57
1000
0100
0010
0100
,  // measure 58
2000
0000
0000
3000
,  // measure 59
0001
0100
0010
0100
,  // measure 60
0002
0000
0000
0003
,  // measure 61
1000
0001
0010
0100
,  // measure 62
0200
0000
0000
0300
,  // measure 63
0020
0000
0000
0030
,  // measure 64
0220
0000
0000
0000
,  // measure 65
0000
0000
0000
0000
,  // measure 66
0330
0000
0000
0000
;

//---------------dance-single - Chewi----------------
#NOTES:
     dance-single:
     Chewi:
     Beginner:
     3:
     0.162,0.199,0.070,0.140,0.000: // measure 1
0000
0000
0000
0000
,  // measure 2
0000
0000
0000
0000
,  // measure 3
0000
0000
0000
0000
,  // measure 4
0000
0000
0000
0000
,  // measure 5
2000
0000
0000
3000
,  // measure 6
0002
0000
0000
0003
,  // measure 7
2002
0000
0000
3003
,  // measure 8
0001
0000
0010
0000
,  // measure 9
0001
0000
1000
0000
,  // measure 10
1000
0000
0100
0000
,  // measure 11
1000
0000
0001
0000
,  // measure 12
0010
0000
0010
0000
,  // measure 13
0001
0000
0001
0000
,  // measure 14
0100
0000
0100
0000
,  // measure 15
0001
0000
1000
0000
,  // measure 16
0002
0000
0000
0003
,  // measure 17
0001
0000
1000
0000
,  // measure 18
1000
0000
1000
0000
,  // measure 19
0100
0000
0100
0000
,  // measure 20
0001
0000
1000
0000
,  // measure 21
0110
0000
0100
0000
,  // measure 22
0010
0000
0010
0000
,  // measure 23
1001
0000
0001
0000
,  // measure 24
1000
0000
1000
0000
,  // measure 25
1000
0000
0010
0000
,  // measure 26
1000
0000
0100
0000
,  // measure 27
0001
0000
0010
0000
,  // measure 28
1000
0000
0100
0000
,  // measure 29
0010
0000
0010
0000
,  // measure 30
1000
0000
0010
0000
,  // measure 31
1000
0000
0001
0000
,  // measure 32
1001
0000
1000
0000
,  // measure 33
0001
0000
0010
0000
,  // measure 34
0110
0000
0010
0000
,  // measure 35
0100
0000
1000
0000
,  // measure 36
1001
0000
1000
0000
,  // measure 37
1000
0000
0010
0000
,  // measure 38
0110
0000
0100
0000
,  // measure 39
0010
0000
1000
0000
,  // measure 40
2000
0000
0000
3000
,  // measure 41
1000
0000
0100
0000
,  // measure 42
0002
0000
0000
0003
,  // measure 43
0001
0000
0100
0000
,  // measure 44
0020
0000
0000
0030
,  // measure 45
0010
0000
0010
0000
,  // measure 46
0200
0000
0000
0300
,  // measure 47
0100
0000
1000
0000
,  // measure 48
0010
0000
0100
0000
,  // measure 49
0001
0000
0100
0000
,  // measure 50
0100
0000
0100
0000
,  // measure 51
0010
0000
0100
0000
,  // measure 52
0010
0000
0010
0000
,  // measure 53
0010
0000
1000
0000
,  // measure 54
0100
0000
1000
0000
,  // measure 55
0001
0000
0001
0000
,  // measure 56
0200
0000
0000
0300
,  // measure 57
0100
0000
0010
0000
,  // measure 58
2000
0000
0000
3000
,  // measure 59
1000
0000
0010
0000
,  // measure 60
0002
0000
0000
0003
,  // measure 61
0001
0000
0010
0000
,  // measure 62
0200
0000
0000
0300
,  // measure 63
0020
0000
0000
0030
,  // measure 64
0220
0000
0000
0000
,  // measure 65
0000
0000
0000
0000
,  // measure 66
0330
0000
0000
0000
;
