#VERSION:0.83;
#TITLE:ファッションモンスター;
#SUBTITLE:;
#ARTIST:きゃりーぱみゅぱみゅ;
#TITLETRANSLIT:FASHION MONSTER;
#SUBTITLETRANSLIT:;
#ARTISTTRANSLIT:Kyary Pamyu Pamyu;
#GENRE:;
#ORIGIN:;
#CREDIT:;
#BANNER:FASHION MONSTER.png;
#BACKGROUND:FASHION MONSTER-bg.png;
#PREVIEWVID:;
#JACKET:FASHION MONSTER-jacket.png;
#CDIMAGE:;
#DISCIMAGE:;
#LYRICSPATH:;
#CDTITLE:cdtitle.png;
#MUSIC:FASHION MONSTER.ogg;
#OFFSET:-0.001000;
#SAMPLESTART:47.250999;
#SAMPLELENGTH:12.000000;
#SELECTABLE:YES;
#BPMS:0.000=160.000;
#STOPS:;
#DELAYS:;
#WARPS:;
#TIMESIGNATURES:0.000=4=4;
#TICKCOUNTS:0.000=4;
#COMBOS:0.000=1;
#SPEEDS:0.000=1.000=0.000=0;
#SCROLLS:0.000=1.000;
#FAKES:;
#LABELS:0.000=Song Start;
#BGCHANGES:0.000=FASHION MONSTER.avi=1.000=1=0=1===CrossFade==,
99999=-nosongbg-=1.000=0=0=0 // don't automatically add -songbackground-
;
#KEYSOUNDS:;
#ATTACKS:
;

//---------------dance-single - ----------------
#NOTEDATA:;
#CHARTNAME:;
#STEPSTYPE:dance-single;
#DESCRIPTION:;
#CHARTSTYLE:;
#DIFFICULTY:Beginner;
#METER:3;
#RADARVALUES:0.105906,0.147497,0.049423,0.061779,0.000000,60.000000,56.000000,4.000000,5.000000,0.000000,0.000000,0.000000,0.000000,0.000000,0.105906,0.147497,0.049423,0.061779,0.000000,60.000000,56.000000,4.000000,5.000000,0.000000,0.000000,0.000000,0.000000,0.000000;
#CREDIT:chewi;
#NOTES:
// measure 0
0000
0000
0000
0000
,  // measure 1
0000
0000
0000
0000
,  // measure 2
0000
0000
0000
0000
,  // measure 3
0000
0000
0000
0000
,  // measure 4
1000
0000
0000
0000
,  // measure 5
0001
0000
0000
0000
,  // measure 6
0100
0000
0000
0000
,  // measure 7
0010
0000
0000
0000
,  // measure 8
0010
0000
0000
0000
,  // measure 9
1000
0000
0000
0000
,  // measure 10
0001
0000
0000
0000
,  // measure 11
0010
0000
0000
0000
,  // measure 12
0100
0000
0000
0000
,  // measure 13
1000
0000
0000
0000
,  // measure 14
0001
0000
0000
0000
,  // measure 15
1000
0000
0000
0000
,  // measure 16
1001
0000
0000
0000
,  // measure 17
1000
0000
0000
0000
,  // measure 18
1001
0000
0000
0000
,  // measure 19
0001
0000
0000
0000
,  // measure 20
0110
0000
0000
0000
,  // measure 21
0010
0000
0000
0000
,  // measure 22
0110
0000
0000
0000
,  // measure 23
0100
0000
0000
0000
,  // measure 24
0001
0001
0000
0000
,  // measure 25
0001
0001
0000
0000
,  // measure 26
1000
1000
0000
0000
,  // measure 27
1000
0000
0000
0000
,  // measure 28
0010
0010
0000
0000
,  // measure 29
0010
0010
0000
0000
,  // measure 30
0100
0000
0000
0000
,  // measure 31
0100
0000
0000
0000
,  // measure 32
0002
0000
0000
0003
,  // measure 33
0001
0000
0000
0000
,  // measure 34
2000
0000
0000
3000
,  // measure 35
1000
0000
0000
0000
,  // measure 36
0010
0000
0010
0000
,  // measure 37
0010
0000
0010
0000
,  // measure 38
0100
0000
0100
0000
,  // measure 39
0100
0000
0100
0000
,  // measure 40
0200
0000
0000
0300
,  // measure 41
0100
0000
0000
0000
,  // measure 42
0020
0000
0000
0030
,  // measure 43
0010
0000
0000
0000
,  // measure 44
2000
0000
0000
3000
,  // measure 45
1000
0000
0000
0000
,  // measure 46
0001
0000
0001
0000
,  // measure 47
0001
0000
0001
0001
;

//---------------dance-single - ----------------
#NOTEDATA:;
#CHARTNAME:;
#STEPSTYPE:dance-single;
#DESCRIPTION:;
#CHARTSTYLE:;
#DIFFICULTY:Easy;
#METER:6;
#RADARVALUES:0.280652,0.324493,0.148269,0.123557,0.000000,159.000000,147.000000,12.000000,10.000000,0.000000,0.000000,0.000000,0.000000,0.000000,0.280652,0.324493,0.148269,0.123557,0.000000,159.000000,147.000000,12.000000,10.000000,0.000000,0.000000,0.000000,0.000000,0.000000;
#CREDIT:chewi;
#NOTES:
// measure 0
0000
0000
0000
0000
,  // measure 1
0000
0000
0000
0000
,  // measure 2
0000
0000
0000
0000
,  // measure 3
0000
0000
0000
0000
,  // measure 4
1000
0100
1000
0000
,  // measure 5
0001
0100
0001
0000
,  // measure 6
1000
0010
1000
0000
,  // measure 7
0001
0010
0001
0000
,  // measure 8
0010
0010
0100
0100
,  // measure 9
1000
1000
0001
0001
,  // measure 10
0100
0100
0010
0010
,  // measure 11
1000
1000
0001
0001
,  // measure 12
1000
1000
0100
0100
,  // measure 13
0010
0010
0100
0100
,  // measure 14
1000
0000
1000
0000
,  // measure 15
2002
0000
0000
3003
,  // measure 16
0001
0100
0001
0100
,  // measure 17
0001
0010
0001
0010
,  // measure 18
0001
0100
0001
0100
,  // measure 19
0010
1000
1000
0010
,  // measure 20
1000
0100
1000
0100
,  // measure 21
0010
0100
0010
0100
,  // measure 22
1000
0100
1000
0100
,  // measure 23
1000
0001
0001
1000
,  // measure 24
1001
1001
0000
0000
,  // measure 25
0110
0110
0000
0000
,  // measure 26
1001
1001
0000
0000
,  // measure 27
0001
1000
0100
0010
,  // measure 28
0110
0110
0000
0000
,  // measure 29
1001
1001
0000
0000
,  // measure 30
0001
0100
1000
0010
,  // measure 31
0001
0100
1000
0010
,  // measure 32
0001
0010
0001
0010
,  // measure 33
0001
0010
0100
1000
,  // measure 34
0010
1000
0010
1000
,  // measure 35
0010
1000
0010
0100
,  // measure 36
0002
0003
2000
3000
,  // measure 37
0200
0300
2000
3000
,  // measure 38
0002
0003
0200
0300
,  // measure 39
0020
0030
2000
3000
,  // measure 40
0010
1000
0010
1000
,  // measure 41
0010
0100
0010
0100
,  // measure 42
0010
1000
0010
1000
,  // measure 43
0100
1000
0100
1000
,  // measure 44
0100
0010
0100
0010
,  // measure 45
0001
0010
0001
0010
,  // measure 46
0001
0000
1000
0000
,  // measure 47
0001
1000
0001
1001
;

//---------------dance-single - ----------------
#NOTEDATA:;
#CHARTNAME:;
#STEPSTYPE:dance-single;
#DESCRIPTION:;
#CHARTSTYLE:;
#DIFFICULTY:Medium;
#METER:8;
#RADARVALUES:0.361847,0.442490,0.370672,0.222403,0.000000,205.000000,175.000000,30.000000,18.000000,0.000000,0.000000,0.000000,0.000000,0.000000,0.361847,0.442490,0.370672,0.222403,0.000000,205.000000,175.000000,30.000000,18.000000,0.000000,0.000000,0.000000,0.000000,0.000000;
#CREDIT:chewi;
#NOTES:
// measure 0
0000
0000
0000
0000
,  // measure 1
0000
0000
0000
0000
,  // measure 2
0000
0000
0000
0000
,  // measure 3
0000
0000
0000
0000
,  // measure 4
1000
0000
0000
0100
0000
0000
1000
0000
,  // measure 5
0000
0010
0100
0001
,  // measure 6
0010
0000
0000
0001
0000
0000
0010
0000
,  // measure 7
0000
0100
1000
0010
,  // measure 8
0100
0000
0000
0001
0000
0000
0100
0000
,  // measure 9
0010
1010
1000
1100
,  // measure 10
0100
0000
0000
0010
0000
0000
0001
0000
,  // measure 11
0010
0011
0001
0101
,  // measure 12
0001
0000
0000
1000
0000
0000
0001
0000
,  // measure 13
0010
0011
1000
1010
,  // measure 14
1001
0000
1001
0000
,  // measure 15
0220
0000
0000
0000
0000
0000
0330
0030
,  // measure 16
0001
0000
1000
0000
0100
0010
0100
0000
,  // measure 17
0010
0001
1000
0010
,  // measure 18
0100
0000
0001
0000
1000
0001
1000
0000
,  // measure 19
0001
1000
1100
0101
,  // measure 20
0100
0000
0010
0000
1000
0001
1000
0000
,  // measure 21
0100
0010
0001
1000
,  // measure 22
1000
0000
0010
0000
0100
0001
0100
0000
,  // measure 23
0001
0100
1010
0011
,  // measure 24
1010
1001
0100
0100
,  // measure 25
0101
1001
0100
0100
,  // measure 26
0110
0000
1001
0000
1000
0001
1000
0000
,  // measure 27
0001
0100
0010
0000
1000
0100
0010
0000
,  // measure 28
0101
1001
0010
0010
,  // measure 29
1010
1001
0010
0010
,  // measure 30
0110
0100
0001
1000
,  // measure 31
0001
0001
1000
1000
,  // measure 32
0002
0103
2000
3100
,  // measure 33
0002
0013
2000
3010
,  // measure 34
0002
0103
2000
3100
,  // measure 35
0002
0000
0013
0003
2000
0000
3010
0000
,  // measure 36
1000
0010
1000
0000
0001
0000
1000
0000
,  // measure 37
0100
0010
0100
0000
0010
0000
0001
0000
,  // measure 38
1000
0100
1000
0000
0001
0000
0010
0000
,  // measure 39
0001
0100
0001
0000
0100
0000
0010
0000
,  // measure 40
0200
0310
0020
0130
,  // measure 41
0002
1003
2000
3001
,  // measure 42
0002
0013
0020
0130
,  // measure 43
0200
1300
2000
3100
,  // measure 44
0010
0000
0001
0000
0100
0100
0100
0000
,  // measure 45
0010
0000
1000
0000
0100
0100
0100
0000
,  // measure 46
1100
0000
0000
0000
0101
3000
0000
0000
,  // measure 47
0110
1001
0110
1001
;

//---------------dance-single - ----------------
#NOTEDATA:;
#CHARTNAME:;
#STEPSTYPE:dance-single;
#DESCRIPTION:;
#CHARTSTYLE:;
#DIFFICULTY:Hard;
#METER:11;
#RADARVALUES:0.508351,0.530988,0.420095,0.210048,0.000000,288.000000,254.000000,34.000000,17.000000,0.000000,0.000000,0.000000,0.000000,0.000000,0.508351,0.530988,0.420095,0.210048,0.000000,288.000000,254.000000,34.000000,17.000000,0.000000,0.000000,0.000000,0.000000,0.000000;
#CREDIT:chewi;
#NOTES:
// measure 0
0000
0000
0000
0000
,  // measure 1
0000
0000
0000
0000
,  // measure 2
0000
0000
0000
0000
,  // measure 3
0000
0000
0000
0000
,  // measure 4
1000
0000
0100
0010
0000
0001
1000
0000
,  // measure 5
0001
0100
0001
0000
0100
0010
0100
0000
,  // measure 6
0010
0000
1000
0001
0000
0010
0100
0000
,  // measure 7
1000
0001
0010
0000
0001
1000
0010
0000
,  // measure 8
1000
0010
0100
0001
0000
0100
0001
0000
,  // measure 9
0001
0100
0010
1000
0000
0010
1000
0000
,  // measure 10
0001
1000
0100
0010
0000
0100
0010
0000
,  // measure 11
0001
1000
0010
0100
0000
0010
0100
0000
,  // measure 12
0001
0100
0010
0100
0001
0010
0100
0000
,  // measure 13
1000
0010
0100
1000
0100
0010
1000
0001
,  // measure 14
1001
1000
1001
0001
,  // measure 15
0220
0000
3000
0330
,  // measure 16
0330
0001
0010
0100
0010
0001
0000
1000
,  // measure 17
0000
0010
0100
0001
0100
0010
0000
1000
,  // measure 18
0000
0001
0100
1000
0100
0001
0000
1000
,  // measure 19
0000
0100
0010
0001
1000
0100
1000
0100
,  // measure 20
0000
1000
0001
0010
0100
0010
0000
0001
,  // measure 21
0000
1000
0010
0100
0001
0100
0000
0010
,  // measure 22
0000
1000
0001
0010
0100
1000
0000
0001
,  // measure 23
0000
1000
0100
0001
0100
1000
0100
1000
,  // measure 24
1010
0000
1010
0000
0001
0100
1000
0100
,  // measure 25
0011
0000
0011
0000
1000
0010
0001
0010
,  // measure 26
1010
0000
1010
0000
0100
0001
0010
0100
,  // measure 27
1000
0010
0100
0001
1000
0100
0010
0001
,  // measure 28
0101
0000
0101
0000
1000
0010
0001
0010
,  // measure 29
1100
0000
1100
0000
0001
0100
1000
0100
,  // measure 30
0000
0010
0001
0100
0010
1000
0001
0010
,  // measure 31
0000
0001
1000
0001
0100
0000
0010
0000
,  // measure 32
0102
0013
2100
3010
,  // measure 33
0102
0000
0013
0003
1000
0010
0100
0001
,  // measure 34
1002
1003
2001
3001
,  // measure 35
1002
0000
1003
0000
0001
0010
0100
1000
,  // measure 36
0010
1000
0100
0010
1000
0010
0100
1000
,  // measure 37
0010
0100
1000
0100
0010
1000
0001
0100
,  // measure 38
0010
0100
0001
0010
0100
0001
0100
0010
,  // measure 39
0001
0100
0010
1000
0001
0010
0100
1000
,  // measure 40
1002
0013
2001
3100
,  // measure 41
1002
0000
0103
0000
0010
1000
0001
0100
,  // measure 42
0120
0130
1020
1030
,  // measure 43
0201
0000
0301
0000
0001
0010
0100
1000
,  // measure 44
1002
0013
2001
3100
,  // measure 45
0120
0000
0130
0000
0010
0100
1000
0001
,  // measure 46
0101
0000
1100
0000
,  // measure 47
0110
1001
0110
1001
;
