#TITLE:FANTASTIC BABY;
#SUBTITLE:;
#ARTIST:BIGBANG;
#TITLETRANSLIT:;
#SUBTITLETRANSLIT:;
#ARTISTTRANSLIT:;
#GENRE:K-Pop;
#CREDIT:chewi;
#BANNER:FANTASTIC BABY.png;
#BACKGROUND:FANTASTIC BABY-bg.png;
#LYRICSPATH:;
#CDTITLE:cdtitle.png;
#MUSIC:FANTASTIC BABY.ogg;
#OFFSET:-0.273000;
#SAMPLESTART:35.328999;
#SAMPLELENGTH:15.000000;
#SELECTABLE:YES;
#BPMS:0.000000=130.000000
;
#STOPS:
;
#BGCHANGES:-0.546=FANTASTIC BABY.avi=1.000=1=0=0=StretchNoLoop==CrossFade==,
99999=-nosongbg-=1.000=0=0=0 // don't automatically add -songbackground-
;
#KEYSOUNDS:;
#ATTACKS:;

//---------------dance-single - ----------------
#NOTES:
     dance-single:
     :
     Beginner:
     2:
     0.100449,0.152751,0.024246,0.109108,0.000000,47.000000,2.000000,9.000000,0.000000,0.000000,0.000000,0.100449,0.152751,0.024246,0.109108,0.000000,47.000000,2.000000,9.000000,0.000000,0.000000,0.000000:
// measure 0
0000
0000
0000
0000
,  // measure 1
0000
0000
0000
0000
,  // measure 2
0000
0000
0000
0000
,  // measure 3
0000
0000
0000
0000
,  // measure 4
1000
0000
0000
0000
,  // measure 5
1000
0000
0000
0000
,  // measure 6
0001
0000
0000
0000
,  // measure 7
0001
0000
0000
0000
,  // measure 8
0020
0000
0000
0030
,  // measure 9
0010
0000
0000
0000
,  // measure 10
0200
0000
0000
0300
,  // measure 11
0100
0000
0000
0000
,  // measure 12
0020
0000
0000
0030
,  // measure 13
0010
0000
0000
0000
,  // measure 14
0200
0000
0000
0300
,  // measure 15
0100
0000
0000
0000
,  // measure 16
1000
0000
0000
0000
,  // measure 17
0001
0000
0000
0000
,  // measure 18
1001
0000
0000
0000
,  // measure 19
1000
0000
1000
0000
,  // measure 20
1000
0000
0000
0000
,  // measure 21
0001
0000
0001
0000
,  // measure 22
0001
0000
0000
0000
,  // measure 23
0100
0000
0100
0000
,  // measure 24
0100
0000
0000
0000
,  // measure 25
0010
0000
0010
0000
,  // measure 26
0010
0000
0000
0000
,  // measure 27
0110
0000
0000
0000
,  // measure 28
0100
0000
0000
0000
,  // measure 29
0100
0000
0000
0000
,  // measure 30
0200
0000
0000
0300
,  // measure 31
0010
0000
0000
0000
,  // measure 32
0010
0000
0000
0000
,  // measure 33
0010
0000
0000
0000
,  // measure 34
0020
0000
0000
0030
,  // measure 35
0010
0000
0010
0000
,  // measure 36
0020
0000
0000
0030
,  // measure 37
0010
0000
0100
0000
,  // measure 38
0200
0000
0000
0300
,  // measure 39
0100
0000
1000
0000
,  // measure 40
2000
0000
0000
3000
,  // measure 41
1000
0000
0001
0000
,  // measure 42
0001
0000
0000
0000
;

//---------------dance-single - ----------------
#NOTES:
     dance-single:
     :
     Easy:
     4:
     0.178383,0.254586,0.000000,0.133354,0.000000,92.000000,0.000000,11.000000,0.000000,0.000000,0.000000,0.178383,0.254586,0.000000,0.133354,0.000000,92.000000,0.000000,11.000000,0.000000,0.000000,0.000000:
0000
0000
0000
0000
,
0000
0000
0000
0000
,
0000
0000
0000
0000
,
0000
0000
0000
0000
,
2000
0000
0000
3000
,
0002
0000
0000
0003
,
2000
0000
0000
0000
,
0001
0001
0001
3001
,
0001
0000
0001
0000
,
0100
0000
0100
0000
,
0010
0000
0010
0000
,
1000
0000
1000
0000
,
0001
0000
0001
0000
,
1000
0000
1000
0000
,
0100
0000
0100
0000
,
0010
0000
0010
0000
,
0020
0000
0000
0030
,
0020
0000
0000
0030
,
0010
0000
0100
0000
,
1000
1000
1000
0000
,
0001
0001
0001
0000
,
0100
0001
0100
1000
,
0100
0000
0000
0000
,
0010
0010
0010
0000
,
0100
0100
0100
0000
,
1000
0010
0001
0010
,
1000
0000
0000
0000
,
0002
0100
0013
0000
,
2000
0100
3010
0000
,
0002
0100
0013
0000
,
0010
0010
0010
0010
,
2000
0100
3001
0000
,
0002
0100
1003
0000
,
2000
0100
3001
0000
,
1000
1000
1000
1000
,
0001
0001
0001
0001
,
0000
0000
0000
0000
,
0100
0100
0100
0100
,
0000
0000
0000
0000
,
1000
1000
1000
1000
,
0000
0000
0000
0000
,
0010
0010
0010
0010
,
0010
0000
0000
0000
;

//---------------dance-single - ----------------
#NOTES:
     dance-single:
     :
     Medium:
     7:
     0.256317,0.330961,0.157601,0.145477,0.000000,123.000000,13.000000,12.000000,0.000000,0.000000,0.000000,0.256317,0.330961,0.157601,0.145477,0.000000,123.000000,13.000000,12.000000,0.000000,0.000000,0.000000:
0000
0000
0000
0000
,
0000
0000
0000
0000
,
0000
0000
0000
0000
,
0000
0000
0000
0000
,
2000
0000
0000
3000
,
0200
0000
0000
0300
,
0020
0000
0000
0030
,
0002
0000
0000
0003
,
1000
0001
1000
0001
,
0100
0010
0100
0010
,
1000
0010
1000
0010
,
0100
0001
0100
0001
,
1000
0100
0010
0001
,
1000
0100
0010
0001
,
1000
0010
0100
0001
,
1000
0010
0100
0001
,
1000
1000
1000
0000
,
0001
0001
0001
0000
,
1001
0000
0000
0000
,
2000
0000
3100
0000
1000
0100
1000
0000
,
0002
0000
0103
0000
0001
0100
0001
0000
,
0100
0000
0010
0000
1000
0000
0001
1000
,
0000
0000
0000
0000
,
0002
0000
0013
0000
0001
0010
0001
0000
,
2000
0000
3010
0000
1000
0010
1000
0000
,
0010
0000
0100
0000
0001
0000
1000
0001
,
0000
0000
0000
0000
,
1000
1100
0001
0000
,
0001
0101
1000
0000
,
1000
1001
0001
0000
,
1000
0100
0010
0001
,
0010
0011
0010
0000
,
0100
1100
0100
0000
,
1000
1001
0001
0000
,
1000
0001
1000
0000
0001
0000
1000
0000
,
0002
0100
0010
1003
,
0000
1001
0000
1001
,
2000
0100
0010
3001
,
0000
1001
0000
1001
,
0200
0010
0001
0310
,
0000
0110
0000
0110
,
0200
0010
0001
0310
,
0010
0000
0000
0000
;

//---------------dance-single - ----------------
#NOTES:
     dance-single:
     :
     Hard:
     10:
     0.410454,0.518263,0.193970,0.290955,0.109108,197.000000,16.000000,24.000000,0.000000,0.000000,0.000000,0.410454,0.518263,0.193970,0.290955,0.109108,197.000000,16.000000,24.000000,0.000000,0.000000,0.000000:
0000
0000
0000
0000
,
0000
0000
0000
0000
,
0000
0000
0000
0000
,
0000
0000
0000
0000
,
0202
0303
0000
0000
,
2020
3030
0000
0000
,
2002
3003
0000
0000
,
1000
0100
0010
0001
0000
0001
1000
0000
,
0001
1000
0001
0000
0100
0000
0100
0000
,
0010
1000
0010
0000
0100
0000
0100
0000
,
0001
0100
0001
0000
1000
0100
1000
0000
,
1000
0100
0010
0001
0010
0000
0010
0000
,
0001
0010
0001
0000
0100
0000
0100
0000
,
0010
1000
0100
0000
1000
0000
1000
0000
,
0100
0010
0001
0000
1000
0100
0010
0000
,
0001
1000
0100
1000
0000
1000
0100
0000
,
0220
0000
0000
0330
,
2002
0000
0000
3003
,
1000
0000
0000
0000
,
0001
0000
1000
0000
0100
0000
0000
0000
0010
0000
0001
0000
0100
0000
0010
1000
,
0100
0000
0100
0000
1000
0000
0000
0000
0010
0000
0100
0000
0001
0000
0001
1000
,
0002
0000
2003
0000
3200
0000
0320
0200
,
0330
0000
0000
0100
1000
0100
1000
0100
,
1000
0000
0001
0000
0100
0000
0000
0000
0010
0000
1000
0000
0001
0000
0100
0001
,
0100
0000
0100
0000
0001
0000
0000
0000
0010
0000
0100
0000
1000
0000
0001
1000
,
0002
0000
0023
0000
0230
0000
2300
0200
,
3300
0000
0000
0001
0100
0001
0100
0010
,
1010
0000
1000
0100
0010
0001
0000
0000
,
0011
0000
1000
0010
0100
0001
0000
0000
,
1001
0000
0001
0100
0001
0010
0000
0000
,
0020
0100
0230
1000
2300
0001
3001
0001
,
1001
0000
0001
0100
1000
0100
0000
0000
,
1001
0000
1000
0010
0001
0010
0000
0000
,
1001
0000
1000
0100
0010
0001
0000
0000
,
1000
0001
1000
0001
1000
0000
0000
0000
0001
0000
0000
0000
1001
0000
0000
0000
,
1010
0000
0000
1000
0001
0000
0000
0001
0100
0000
0000
0100
0001
0000
0000
0000
,
0000
0000
0001
1000
0010
1000
0001
0000
,
0011
0000
0000
0001
1000
0000
0000
1000
0100
0000
0000
0100
1000
0000
0000
0000
,
0000
0000
1000
0001
0100
0001
1000
0000
,
1001
0000
0000
1000
0100
0000
0000
0100
0010
0000
0000
0010
0001
0000
0000
0000
,
0000
0000
1000
0001
0100
0001
1000
0000
,
1001
0000
0000
0001
0100
0000
0000
0100
0010
0000
0000
0010
0100
0000
0000
0000
,
0200
0000
0000
0300
;
