#TITLE:Experience;
#SUBTITLE:;
#ARTIST:Victoria Monét, Khalid & SG Lewis;
#TITLETRANSLIT:;
#SUBTITLETRANSLIT:;
#ARTISTTRANSLIT:;
#GENRE:;
#CREDIT:Tiffany West;
#BANNER:Experience.png;
#BACKGROUND:Experience-bg.png;
#LYRICSPATH:;
#CDTITLE:cdtitle.png;
#MUSIC:Experience.ogg;
#OFFSET:0.000000;
#SAMPLESTART:38.570000;
#SAMPLELENGTH:12.000000;
#SELECTABLE:YES;
#BPMS:0.000000=112.000000
;
#STOPS:
;
#BGCHANGES:0.000=Experience.avi=1.000=1=0=1===CrossFade==,
99999=-nosongbg-=1.000=0=0=0 // don't automatically add -songbackground-
;
#KEYSOUNDS:;
#ATTACKS:;

//---------------dance-single - Tiffany West----------------
#NOTES:
     dance-single:
     Tiffany West:
     Beginner:
     1:
     0.073170,0.108129,0.000000,0.045528,0.000000,45.000000,45.000000,0.000000,4.000000,0.000000,0.000000,0.073170,0.108129,0.000000,0.045528,0.000000,45.000000,45.000000,0.000000,4.000000,0.000000,0.000000:
// measure 0
0000
0000
0000
0000
,  // measure 1
0000
0000
0000
0000
,  // measure 2
0010
0000
0000
0000
,  // measure 3
0001
0000
0000
0000
,  // measure 4
0100
0000
0000
0000
,  // measure 5
1000
0000
0000
0000
,  // measure 6
0010
0000
0000
0000
,  // measure 7
1000
0000
0000
0000
,  // measure 8
0100
0000
0000
0000
,  // measure 9
0001
0000
0000
0000
,  // measure 10
0020
0000
0000
0030
,  // measure 11
0010
0000
0000
0000
,  // measure 12
0200
0000
0000
0300
,  // measure 13
0100
0000
0000
0000
,  // measure 14
2000
0000
0000
3000
,  // measure 15
1000
0000
0000
0000
,  // measure 16
0002
0000
0000
0003
,  // measure 17
0001
0000
0000
0000
,  // measure 18
0000
0001
0000
0001
,  // measure 19
0000
1000
0000
1000
,  // measure 20
0000
0010
0000
0010
,  // measure 21
0000
0100
0000
0100
,  // measure 22
0000
0001
0000
0001
,  // measure 23
0000
1000
0000
1000
,  // measure 24
0000
0100
0000
0100
,  // measure 25
0000
0010
0000
0010
,  // measure 26
0010
0000
0000
0000
,  // measure 27
0100
0000
0000
0000
,  // measure 28
1000
0000
0000
0000
,  // measure 29
0001
0000
0000
0000
,  // measure 30
1000
0000
0000
0000
,  // measure 31
0001
0000
0000
0000
,  // measure 32
0100
0000
0000
0000
,  // measure 33
0010
0000
0000
0000
,  // measure 34
0010
0000
0000
0000
,  // measure 35
1000
0000
0000
0000
,  // measure 36
0100
0000
0000
0000
,  // measure 37
0001
0000
0000
0000
,  // measure 38
0010
0000
0000
0000
;

//---------------dance-single - Tiffany West----------------
#NOTES:
     dance-single:
     Tiffany West:
     Easy:
     4:
     0.151218,0.171868,0.068292,0.045528,0.000000,93.000000,87.000000,6.000000,4.000000,0.000000,0.000000,0.151218,0.171868,0.068292,0.045528,0.000000,93.000000,87.000000,6.000000,4.000000,0.000000,0.000000:
0000
0000
0000
0000
,
0000
0000
0000
0000
,
1000
0100
0010
0001
,
0000
1000
0000
1000
,
0001
0000
1001
0000
,
1000
0000
1001
0000
,
0100
0010
1000
0001
,
0000
1000
0000
1000
,
1000
0000
1001
0000
,
0001
0000
1001
0000
,
2000
0000
0010
0000
,
0100
0000
3010
0000
,
0002
0000
0010
0000
,
0100
0000
0013
0000
,
0020
0000
0100
0000
,
1000
0000
0130
0000
,
0200
0000
0010
0000
,
0001
0000
0310
0000
,
0010
0010
0010
0000
,
0001
1000
0001
0000
,
0100
0100
0100
0000
,
0010
1000
0010
0000
,
1000
0000
1000
0000
,
0010
0000
0010
0000
,
0100
0000
0100
0000
,
0001
0000
0001
0000
,
0001
0010
0100
1000
,
0000
1000
0000
0001
,
0000
1000
0000
0001
,
0000
0100
0100
0000
,
0100
0010
1000
0001
,
0000
1000
0000
0001
,
0000
1000
0000
0100
,
0000
0100
0100
0100
,
0010
0100
1000
0100
,
0000
1000
0000
1000
,
0000
0001
0000
0001
,
0000
1001
0000
0110
;

//---------------dance-single - Tiffany West----------------
#NOTES:
     dance-single:
     Tiffany West:
     Medium:
     8:
     0.292680,0.302761,0.193494,0.091056,0.000000,180.000000,163.000000,17.000000,8.000000,0.000000,0.000000,0.292680,0.302761,0.193494,0.091056,0.000000,180.000000,163.000000,17.000000,8.000000,0.000000,0.000000:
0000
0000
0000
0000
,
0000
0000
0000
0000
,
0100
0001
1000
0010
,
1000
0010
1000
0000
0010
1000
0010
0000
,
1000
0000
1100
0000
0100
0100
0100
0000
,
0010
0000
0011
0000
0010
0010
0010
0000
,
0010
0001
1000
0010
,
0100
0001
0100
0000
0001
0100
0001
0000
,
0001
0000
0011
0000
0010
0010
0010
0000
,
0100
0000
1100
0000
0100
0100
0100
0000
,
1000
0010
0001
0100
,
1000
0010
1000
0000
,
1000
0100
0001
0010
,
1000
0100
1000
0000
,
0100
0010
0001
1000
,
0001
1000
0001
0000
,
1000
0010
0100
0001
,
0100
0001
0100
0000
,
2001
3100
2001
3010
,
1002
0013
1002
0103
,
0100
0001
0100
0001
0100
0000
0010
0000
,
1000
0001
1000
0001
1000
0000
0001
0000
,
1002
0013
1002
0103
,
2001
3100
2001
3010
,
0010
1000
0010
1000
0010
0000
0100
0000
,
0001
1000
0001
1000
0001
0000
1000
0000
,
0010
1000
0001
0100
,
0001
0100
0001
0000
0100
0001
0100
0000
,
0001
0000
0011
0000
0010
0010
0010
0000
,
0100
0000
1100
0000
0100
0100
0100
0000
,
0100
1000
0001
0100
,
0010
1000
0010
0000
1000
0010
1000
0000
,
1000
0000
1100
0000
0100
0100
0100
0000
,
0010
0000
0011
0000
0010
0010
0010
0000
,
0001
0100
1000
0010
,
0001
0100
1000
0000
,
1000
0100
0001
0010
,
1000
0100
0001
0000
,
1001
0000
0000
0000
;

//---------------dance-single - Tiffany West----------------
#NOTES:
     dance-single:
     Tiffany West:
     Hard:
     10:
     0.385362,0.367639,0.204876,0.239022,0.102438,237.000000,219.000000,18.000000,21.000000,0.000000,0.000000,0.385362,0.367639,0.204876,0.239022,0.102438,237.000000,219.000000,18.000000,21.000000,0.000000,0.000000:
0000
0000
0000
0000
,
0000
0000
0000
0000
,
1000
0010
0100
0001
0100
0000
0001
0000
,
0010
1100
0010
0101
,
0001
0000
0010
0000
0000
0010
0000
0000
0100
0000
1000
0000
0100
0000
0000
0000
,
1000
0000
0010
0000
0000
0010
0000
0000
0100
0000
0001
0000
0100
0000
0000
0000
,
0001
0100
0010
1000
0010
0000
1000
0000
,
0100
0011
0100
1010
,
1000
0000
0100
0000
0000
0100
0000
0000
0010
0000
0001
0000
0010
0000
0000
0000
,
0001
0000
0100
0000
0000
0100
0000
0000
0010
0000
1000
0000
0010
0000
0000
0000
,
1000
0010
0200
0000
0302
0000
0023
0000
,
0031
0010
0200
0000
2300
0000
3020
0000
,
1030
0000
0000
1000
0100
0000
0000
0100
1000
0000
0000
1000
0010
0000
0000
0010
,
0100
0100
0001
0000
0001
0001
0100
0000
,
0001
0100
0020
0000
2030
0000
3200
0000
,
1300
0100
0020
0000
0032
0000
0203
0000
,
0301
0000
0000
0001
0010
0000
0000
0010
0001
0000
0000
0001
0100
0000
0000
0100
,
0010
0010
1000
0000
1000
1000
0010
0000
,
2010
0001
3001
0000
0012
1000
1003
0000
,
1002
0100
0103
0000
1000
0010
0001
0100
,
1000
0000
1100
0000
1000
0100
0001
0010
,
1000
0000
1010
0000
1000
0010
0100
0001
,
1000
0000
1100
0000
0010
0001
0010
0001
,
0001
0000
1001
0000
0001
0100
0010
1000
,
0001
0000
0011
0000
0100
1000
0100
1000
,
1000
0000
1001
0000
0100
0100
0100
0000
,
0001
0010
0100
0001
0200
0000
0320
0000
,
0031
0000
1000
0001
1000
0000
0000
0000
0001
0000
1000
0001
1000
0000
0000
0000
,
0001
1000
0010
0000
0100
0001
0101
0000
,
0001
0010
0100
0000
0010
0100
1100
0000
,
1000
0100
0010
1000
0020
0000
0230
0000
,
1300
0000
0001
1000
0001
0000
0000
0000
1000
0000
0001
1000
0001
0000
0000
0000
,
1000
0001
0100
0000
0010
1000
1010
0000
,
1000
0100
0010
0000
0100
0010
0011
0000
,
0010
0001
1000
0010
2000
0000
3002
0000
,
0013
0000
0100
0010
0100
0000
0000
0000
0010
0000
0100
0010
0100
0000
0000
0000
,
0010
0100
1000
0000
0001
0010
0001
0000
,
0010
0001
1000
0000
0001
1000
0001
0000
,
1001
0000
0000
0000
;
