#MENUCOLOR:;
#METERTYPE:DDR X;
#TITLE:Everybody (Nufoundation Remix);
#SUBTITLE:;
#ARTIST:Carl Q feat. Fraz;
#TITLETRANSLIT:;
#SUBTITLETRANSLIT:;
#ARTISTTRANSLIT:;
#CREDIT:Chewi☆;
#BANNER:Everybody (Nufoundation Remix).png;
#BACKGROUND:Everybody (Nufoundation Remix)-bg.png;
#LYRICSPATH:;
#CDTITLE:;
#MUSIC:Everybody (Nufoundation Remix).mp3;
#OFFSET:-0.119;
#SAMPLESTART:46.582;
#SAMPLELENGTH:15.000;
#SELECTABLE:YES;
#DISPLAYBPM:124.000;
#BPMS:0.000=124.000;
#STOPS:;
#BGCHANGES:;

//---------------dance-single - Chewi----------------
#NOTES:
     dance-single:
     Chewi:
     Beginner:
     2:
     0.144,0.178,0.019,0.106,0.000:
0000
0000
0000
0000
,
0000
0000
0000
0000
,
0000
0000
0000
0000
,
0000
0000
0000
0000
,
1000
0000
1000
0000
,
0001
0000
0001
0000
,
0100
0000
0100
0000
,
0010
0000
0010
0000
,
0020
0000
0000
0030
,
0010
0000
0010
0000
,
0200
0000
0000
0300
,
0100
0000
0100
0000
,
0002
0000
0000
0003
,
0001
0000
0001
0000
,
2000
0000
0000
3000
,
1000
0000
1000
0000
,
0100
0100
0100
0000
,
1000
1000
1000
0000
,
0001
0001
0001
0000
,
0100
0100
0100
0000
,
0001
0001
0001
0000
,
1000
1000
1000
0000
,
0010
0000
0000
0000
,
0100
0000
0000
0000
,
0200
0000
0000
0300
,
0100
0000
0100
0000
,
0020
0000
0000
0030
,
0010
0000
0010
0000
,
1000
0000
0100
0000
,
0001
0000
0100
0000
,
1000
0000
0001
0000
,
1000
0000
0001
0000
,
0002
0000
0000
0000
,
0000
0000
0000
0003
,
0001
0001
0001
0000
,
1000
1000
1000
0000
,
2000
0000
0000
0000
,
0000
0000
0000
3000
,
1000
1000
1000
0000
,
0001
0001
0001
0000
,
0002
0000
0000
0003
,
0001
0000
0001
0000
,
2000
0000
0000
3000
,
1000
0000
1000
0000
,
0100
0000
0001
0000
,
0010
0000
0001
0000
,
0100
0000
0010
0000
,
0100
0000
0010
0000
,
1001
0000
0000
0000
,
0100
0100
0100
0000
,
0110
0000
0000
0000
,
0010
0010
0010
0010
,
0020
0000
0000
0000
,
0030
0000
0000
0000
;

//---------------dance-single - Chewi----------------
#NOTES:
     dance-single:
     Chewi:
     Easy:
     3:
     0.197,0.203,0.019,0.067,0.000:
0000
0000
0000
0000
,
0000
0000
0000
0000
,
0000
0000
0000
0000
,
0000
0000
0000
0000
,
2000
0000
0000
3000
,
1000
0100
0001
0000
,
0002
0000
0000
0003
,
0001
0100
1000
0000
,
0010
1000
0010
0000
,
0010
0001
0010
0000
,
0100
0001
0100
0000
,
0100
1000
0100
0000
,
1000
0001
0100
0000
,
0001
1000
0100
0000
,
1000
0001
0010
0000
,
0001
1000
0010
0000
,
0010
0100
0100
0000
,
0100
0001
0001
0000
,
0001
1000
1000
0000
,
1000
0001
0001
0000
,
0010
0100
0100
0000
,
0100
0010
0010
0000
,
0001
0000
1000
0000
,
1001
0000
0000
0000
,
1000
0100
0001
0010
,
1000
0000
1000
0000
,
1000
0010
0001
0100
,
1000
0000
1000
0000
,
1000
0100
0010
0001
,
0010
0000
0010
0000
,
0001
0010
0100
1000
,
0100
0000
0100
0000
,
0002
0000
0000
0003
,
1000
1000
0001
0001
,
2000
0000
0000
3000
,
0001
0001
1000
1000
,
0020
0000
0000
0030
,
0010
0010
0100
0100
,
0020
0000
0000
0030
,
0010
0010
0100
0100
,
0001
0010
1000
0100
,
0001
0000
0001
0000
,
0001
0100
1000
0010
,
0001
0000
0001
0000
,
0001
0010
0100
1000
,
0100
0000
0100
0000
,
1000
0100
0010
0001
,
0010
0000
0010
0000
,
0110
0010
0010
0000
,
1000
0001
1000
0000
,
0001
0010
0001
0000
,
1000
0100
0001
0100
,
0020
0000
0000
0000
,
0030
0000
0000
0000
;

//---------------dance-single - Chewi----------------
#NOTES:
     dance-single:
     Chewi:
     Medium:
     7:
     0.299,0.356,0.144,0.182,0.000:
0000
0000
0000
0000
,
0000
0000
0000
0000
,
0000
0000
0000
0000
,
0000
0000
0000
0000
,
1000
0000
0100
0000
1000
0001
0100
0000
,
0001
0000
0100
0000
0001
1000
0100
0000
,
0010
0100
0100
0010
,
0001
1000
1000
0001
,
0102
0000
0000
1000
2000
0000
0000
0000
,
3003
1000
0100
0001
,
0020
0000
0001
0000
,
1000
0000
0031
0000
,
2000
0000
0000
0001
0002
0000
0000
0000
,
3003
1000
0100
0001
,
0020
0000
0001
0000
,
1000
0000
0031
0000
,
0010
1000
0100
0001
,
0010
0001
0100
1000
,
0010
0100
0001
1000
,
0100
0010
0001
1000
,
0010
0110
0100
0101
,
0001
0010
0100
1000
,
0100
0110
1000
1100
,
0001
1000
0001
0000
,
1000
0000
0010
0000
1000
0001
0010
0000
,
0001
0000
0010
0000
0001
1000
0010
0000
,
0100
0000
0001
0000
1000
0001
0100
0000
,
0100
0000
1000
0000
0001
1000
0100
0000
,
0010
0001
0100
1000
,
0010
1000
0100
0001
,
0010
0100
0010
0000
0001
1000
0001
0000
,
1000
1010
0001
0011
,
0220
0000
0000
0330
,
0001
0010
0100
1000
0000
0000
0000
0000
,
2002
0000
0000
3003
,
1000
0010
0100
0001
0000
0000
0000
0000
,
0202
0000
0000
0303
,
0001
0100
0010
1000
0000
0000
0000
0000
,
2002
0000
0000
3003
,
1000
0100
0010
0001
0000
0000
0000
0000
,
0001
0000
0100
0000
0001
1000
0100
0000
,
1000
0000
0100
0000
1000
0001
0100
0000
,
0010
0000
1000
0000
0001
1000
0010
0000
,
0010
0000
0001
0000
1000
0001
0010
0000
,
0100
1000
0010
0001
,
0100
0001
0010
1000
,
0100
0010
0100
0000
1000
0001
1000
0000
,
0001
0101
1000
1100
,
1002
0000
1000
0000
1000
1000
1003
0000
,
0002
0100
0010
1003
,
2001
0000
0001
0000
0001
0001
3001
0000
,
2000
0100
0001
0010
,
0020
0000
0000
0000
,
3030
0000
0000
0000
;

//---------------dance-single - Chewi----------------
#NOTES:
     dance-single:
     Chewi:
     Hard:
     10:
     0.385,0.381,0.211,0.106,0.000:
0000
0000
0000
0000
,
0000
0000
0000
0000
,
0000
0000
0000
0000
,
0000
0000
0000
0000
,
1000
0100
0010
0001
,
1000
0010
0100
0001
,
0001
0010
0100
1000
,
0200
0000
0000
0300
,
0002
0000
0000
1000
0200
0000
0000
0000
,
0303
0100
0010
1000
0001
0010
0100
1000
,
0001
1000
0010
0100
,
0001
1000
0100
0010
,
0002
0000
0000
1000
2000
0000
0000
0000
,
3003
0010
0100
0001
0100
0010
1000
1000
,
0002
0010
1000
0103
,
2000
0100
0001
3010
,
0010
0100
0001
0000
0010
0000
0011
0000
,
0010
0100
1000
0000
0010
0000
1010
0000
,
0100
0010
1000
0100
0010
0001
0100
0000
,
0100
0010
1000
0001
0010
0100
1000
0000
,
1000
0000
0100
0000
0001
0010
1000
0000
,
1000
0000
0010
0000
0001
0100
1000
0000
,
1000
0001
0010
0000
0010
0000
0110
0000
,
0100
1000
0001
0000
0100
0000
0101
0000
,
0001
0100
1000
0010
0001
0010
0100
0000
,
0010
0101
0010
1100
,
0001
1000
0100
0001
,
1000
0001
0100
1000
,
1000
0010
0001
0000
0001
0010
1000
0000
,
1000
0100
0010
0000
1000
0100
0010
0001
,
0010
0100
0010
0000
0001
0100
0010
0000
,
0001
0100
0010
1000
0010
0100
0010
1000
,
0100
0101
0100
1100
,
0010
0100
0010
0100
0010
0100
0010
0100
,
0010
1001
0100
1001
,
0100
0010
0100
0010
0100
0010
0100
0010
,
0100
1100
0010
0101
,
0001
1000
0001
1000
0001
1000
0001
1000
,
0001
1100
1000
0101
,
0100
0000
0010
0000
0100
0010
0100
0010
,
0102
0010
1000
0103
,
1000
0100
0001
0010
1000
0100
0010
0001
,
0100
0010
0100
0000
0001
1000
0001
0000
,
1000
1100
0101
1100
,
2010
0100
0001
3010
,
0001
0010
1000
0100
0001
0010
0100
1000
,
0010
0100
0010
0000
1000
0001
1000
0000
,
0001
0011
1010
0011
,
0001
0000
0010
0000
0100
1000
0100
0000
,
1000
0000
0010
0000
0100
0001
0100
0000
,
0010
0100
0001
1000
,
0100
0010
0001
2000
,
0002
0000
0000
0000
,
3003
0000
0000
0000
;

//---------------dance-double - Chewi----------------
#NOTES:
     dance-double:
     Chewi:
     Hard:
     11:
     0.459,0.458,0.221,0.307,0.000:
00000000
00000000
00000000
00000000
,
00000000
00000000
00000000
00000000
,
00000000
00000000
00000000
00000000
,
00000000
00000000
00000000
00000000
,
00100000
11000000
00100000
01010000
,
01000000
00010000
01000000
00000000
00010000
00100000
00010000
00000000
,
00100000
00011000
00000010
00011000
,
00010000
00000100
00001000
00000000
00001000
00001000
00001000
00000000
,
00001002
00000000
00000103
00000010
00002000
00000000
00003001
00000000
,
00000010
00000100
00001000
00000010
00000100
00000001
00000100
00000010
,
00001000
00000000
00001100
00000000
00000100
00010000
00001000
00000000
,
00010000
00000000
00011000
00000000
00001000
00010000
01000000
00000000
,
00200000
00000000
10300000
00010000
00200000
00000000
00310000
00100000
,
01000000
10000000
00100000
10000000
01000000
00100000
00010000
01000000
,
00100000
10010000
01000000
10010000
,
10000000
01000000
00100000
00010000
00001000
00000100
00000010
00000001
,
00000200
00000302
00000023
00000032
,
00000013
00000100
00000010
00000000
00000100
00000010
00000100
00000000
,
00000020
00002030
00003200
00020300
,
00031000
00010000
00001000
00000000
00010000
00001000
00010000
00000000
,
00020000
02030000
03200000
20300000
,
30010000
10000000
01000000
00000000
10000000
00010000
01000000
00000000
,
00100000
00100000
00100000
00000000
10000000
00000000
11000000
00000000
,
00100000
00100000
00100000
00000000
00010000
00000000
00110000
00000000
,
00200000
00320000
00032000
00003020
,
00000130
00000100
00000010
00000000
00000100
00000010
00000100
00000000
,
00000100
00000101
00000100
00001100
,
00001001
00000110
00001010
00001100
,
00000200
00020300
00032000
00203000
,
00310000
01000000
10000000
00100000
,
01000000
00010000
01000000
00000000
00010000
00100000
00010000
00000000
,
00100000
01000000
10000000
01000000
00100000
00010000
01000000
00100000
,
01000000
00000000
00010000
00000000
00100000
01000000
10000000
00000000
,
00100000
00000000
01000000
00000000
00010000
00100000
00001000
00010000
,
00000100
00001000
00000001
00000000
00000100
00000001
00001000
00000000
,
00000010
00000100
00000001
00001000
00000100
00000010
00000001
00001000
,
00000010
00001000
00000100
00000000
00001000
00000001
00000100
00000000
,
00000010
00000001
00000100
00000000
00000001
00001000
00000100
00000000
,
00000010
00000010
00000100
00000000
00001000
00001000
00000100
00000000
,
00000100
00010000
00001000
00100000
00010000
01000000
00010000
01000000
,
00010000
00100000
01000000
10000000
00100000
01000000
00010000
01000000
,
00100000
01000000
00010000
00100000
00001000
00010000
00000100
00001000
,
00000001
00000100
00000010
00000100
00000001
00000010
00000100
00001000
,
00000010
00001000
00000100
00001000
00000010
00000100
00000101
00000000
,
00000001
00000100
00000010
00001000
00000100
00010000
01000000
10000000
,
00100000
00010000
00100000
10000000
01000000
00100000
10000000
01000000
,
00100000
00010000
10000000
01000000
00100000
00010000
01000000
00010000
,
00100000
00001000
00010000
00000100
00001000
00000001
00000100
00000010
,
00002010
00000001
00000010
00003001
,
00000102
00001000
00000100
00001003
,
00000200
00002300
00023000
00032000
,
00013000
01010000
00001000
00011000
,
00002020
00000000
00000000
00000000
,
00003030
00000000
00000000
00000000
;

//---------------dance-double - Chewi----------------
#NOTES:
     dance-double:
     Chewi:
     Medium:
     7:
     0.336,0.356,0.144,0.221,0.000:
00000000
00000000
00000000
00000000
,
00000000
00000000
00000000
00000000
,
00000000
00000000
00000000
00000000
,
00000000
00000000
00000000
00000000
,
02000000
10000000
00010000
13000000
,
01000000
00100000
00010000
00000000
01000000
00010000
00100000
00000000
,
00002000
00010000
00100000
00013000
,
00020000
00001000
00000010
00031000
,
00001000
00000010
00001000
00000000
00000010
00000000
00000110
00000000
,
00000100
00000001
00000010
00001000
,
00000100
00001000
00000100
00010000
,
00001000
00010000
01000000
00010000
,
00100000
00010000
00100000
00110000
,
01000000
00100000
10000000
00010000
,
10000000
01000000
00100000
00010000
,
00001000
00000100
00000001
00000100
,
00000010
00000100
00000010
00000000
00001000
00000000
00001010
00000000
,
00000001
00000100
00000010
00001000
,
00000100
00010000
00000100
00000000
00010000
00000000
00011000
00000000
,
00001000
00100000
10000000
01000000
,
00100000
11000000
00100000
01010000
,
01000000
00100000
01000000
00000000
00100000
01000000
00100000
00000000
,
20000000
00010000
01000000
00000000
,
30020000
00100000
20000000
30030000
,
20000000
32000000
03200000
00320000
,
00130000
00001000
00010000
00011000
,
00020000
00032000
00003020
00000230
,
00000301
00000100
00001000
00000100
,
00000200
00002300
00003020
00002030
,
00003100
00010000
00001000
00100000
,
01000000
00010000
01000000
10100000
,
01000000
00100000
01000000
00000000
00010000
10000000
00010000
00000000
,
11000000
00010000
01000000
10000000
,
00100000
00010000
00100000
10000000
,
00110000
00100000
00010000
00001000
,
00010000
00000100
00010000
00001000
,
00000010
00000001
00000100
00001000
,
00000010
00001000
00000100
00000001
,
00000010
00001000
00000010
00000000
00000100
00000000
00000100
00000000
,
00001000
00000100
00010000
00000000
00011000
00000000
00010000
00000000
,
01010000
10000000
01000000
10010000
,
00100000
01000000
00100000
00000000
01000000
00100000
01000000
00000000
,
00100000
01000000
00010000
10000000
,
01000000
00100000
00001000
00010000
,
00000100
00000010
00000001
00001000
,
00000010
00000100
00000001
00000011
,
00001000
00001100
00000100
00010000
,
00001000
00010000
00001000
00000000
00010000
00001000
00010000
00001000
,
00002000
00010000
00010000
00013000
,
00020000
01000000
00100000
01030000
,
00200000
00010000
00001000
00301000
,
00002000
00010000
00010000
00010000
,
00020000
00000000
00000000
00000000
,
00033000
00000000
00000000
00000000
;

//---------------dance-double - Chewi----------------
#NOTES:
     dance-double:
     Chewi:
     Easy:
     4:
     0.244,0.305,0.067,0.144,0.000: // measure 1
00000000
00000000
00000000
00000000
,  // measure 2
00000000
00000000
00000000
00000000
,  // measure 3
00000000
00000000
00000000
00000000
,  // measure 4
00000000
00000000
00000000
00000000
,  // measure 5
10000000
01000000
00100000
00000000
,  // measure 6
00010000
00100000
01000000
00000000
,  // measure 7
00100000
00010000
00001000
00000000
,  // measure 8
00010000
00001000
00000010
00000000
,  // measure 9
00000002
00000003
00000001
00000000
,  // measure 10
00000001
00000100
00001000
00000010
,  // measure 11
00001000
00000100
00001000
00000010
,  // measure 12
00001000
00000100
00010000
00001000
,  // measure 13
00200000
00300000
00100000
00000000
,  // measure 14
00100000
10000000
01000000
00100000
,  // measure 15
10000000
01000000
00100000
00000000
,  // measure 16
00010000
01000000
00100000
00000000
,  // measure 17
01000000
00010000
00001000
00010000
,  // measure 18
00001000
00000010
00000001
00000100
,  // measure 19
00001000
00000100
00000010
00000000
,  // measure 20
00000001
00000100
00000010
00000000
,  // measure 21
00001000
00000100
00010000
01000000
,  // measure 22
00010000
01000000
10000000
00100000
,  // measure 23
00010000
00100000
00000000
00100000
,  // measure 24
00000000
00010000
00000000
00010000
,  // measure 25
00010000
00010000
00001000
00001000
,  // measure 26
00000010
00000010
00001000
00001000
,  // measure 27
00000010
00000100
00000001
00000100
,  // measure 28
00000110
00000000
00001001
00000000
,  // measure 29
00000010
00000010
00000100
00000100
,  // measure 30
00001000
00001000
00100000
00100000
,  // measure 31
01000000
01000000
00010000
00010000
,  // measure 32
00100000
01000000
00100000
00010000
,  // measure 33
00020000
00030000
01000000
00010000
,  // measure 34
00002000
00003000
00010000
00001000
,  // measure 35
00000020
00000030
00001000
00000001
,  // measure 36
00001000
00001000
00000001
00000001
,  // measure 37
00000002
00000003
00000001
00000100
,  // measure 38
00000200
00000300
00000100
00001000
,  // measure 39
00020000
00030000
00010000
01000000
,  // measure 40
00020000
00030000
10000000
10010000
,  // measure 41
00010000
00100000
01000000
10000000
,  // measure 42
01000000
00100000
00010000
00000000
,  // measure 43
00100000
00010000
00001000
00000100
,  // measure 44
00000001
00001001
00001000
00000001
,  // measure 45
00000001
00000100
00000010
00001000
,  // measure 46
00000100
00001000
00010000
00100000
,  // measure 47
10000000
10000000
10000000
10010000
,  // measure 48
00010000
00010000
00010000
10010000
,  // measure 49
22000000
00000000
00000000
33000000
,  // measure 50
00020000
00000000
00000000
00030000
,  // measure 51
00200000
00000000
00000000
00300000
,  // measure 52
00002000
00000000
00000000
00000000
,  // measure 53
00023000
00000000
00000000
00000000
,  // measure 54
00030000
00000000
00000000
00000000
;
