#TITLE:EveryBody JUMP!!;
#SUBTITLE:;
#ARTIST:SUPER☆GiRLS;
#TITLETRANSLIT:;
#SUBTITLETRANSLIT:;
#ARTISTTRANSLIT:SUPER GiRLS;
#GENRE:;
#CREDIT:Chewi☆;
#MENUCOLOR:;
#METERTYPE:DDR X;
#BANNER:EveryBody JUMP!!.png;
#BACKGROUND:EveryBody JUMP!!-bg.png;
#LYRICSPATH:;
#CDTITLE:;
#MUSIC:EveryBody JUMP!!.mp3;
#OFFSET:-2.068;
#SAMPLESTART:46.638;
#SAMPLELENGTH:15.000;
#SELECTABLE:YES;
#LISTSORT:;
#DISPLAYBPM:140.000;
#BPMS:0.000=140.000;
#STOPS:;
#BGCHANGES:;
#ATTACKS:;

//---------------dance-single - Chewi----------------
#NOTES:
     dance-single:
     Chewi:
     Beginner:
     1:
     0.068,0.098,0.011,0.000,0.000:
0000
0000
0000
0000
,
0000
0000
0000
0000
,
0000
0000
0000
0000
,
0000
0000
0000
0000
,
1000
0000
0000
0000
,
1000
0000
0000
0000
,
0100
0000
0000
0000
,
0100
0000
0000
0000
,
0010
0000
0000
0000
,
1000
0000
0000
0000
,
0010
0000
0000
0000
,
0001
0000
0000
0000
,
0001
0000
0000
0000
,
0100
0000
0000
0000
,
0001
0000
0000
0000
,
1000
0000
0000
0000
,
0010
0000
0000
0000
,
0010
0000
0000
0000
,
0001
0000
0000
0000
,
0100
0000
0000
0000
,
0010
0000
0000
0000
,
1000
0000
0000
0000
,
1000
0000
0000
0000
,
0100
0000
0000
0000
,
0100
0000
0000
0000
,
0010
0000
0000
0000
,
1000
0000
0000
0000
,
0100
0000
0000
0000
,
0010
0000
0000
0000
,
0100
0000
0000
0000
,
0010
0000
0000
0000
,
0001
0000
0000
0000
,
0100
0000
0000
0000
,
0010
0000
0000
0000
,
0001
0000
0000
0000
,
0001
0000
0000
0000
,
1000
0000
0000
0000
,
0001
0000
0000
0000
,
0100
0000
0000
0000
,
0100
0000
0000
0000
,
0010
0000
0000
0000
,
0001
0000
0000
0000
,
1000
0000
0000
0000
,
0001
0000
1001
0000
;

//---------------dance-single - Chewi----------------
#NOTES:
     dance-single:
     Chewi:
     Easy:
     5:
     0.218,0.249,0.079,0.181,0.000:
0000
0000
0000
0000
,
0000
0000
0000
0000
,
0000
0000
0000
0000
,
0000
0000
0000
0000
,
2000
0000
3000
0000
,
1000
0001
0010
0100
,
0200
0000
0300
0000
,
0100
0010
0001
0100
,
0000
0010
0010
1000
,
1000
0000
1000
0100
,
0010
0001
0000
0000
,
0000
0000
0000
0000
,
0000
0001
0001
0100
,
0100
0000
0010
1000
,
0001
1000
0000
0000
,
0000
0000
1000
0100
,
0010
0100
1000
0010
,
0010
0000
0010
0100
,
0001
0010
0001
0100
,
0100
0000
0100
0100
,
0010
0010
1000
0001
,
1000
0000
0001
0001
,
1000
1000
0001
0010
,
0100
0000
1000
0010
,
0100
0000
0000
0100
,
0010
0000
1000
0001
,
1000
0001
1001
0000
,
0100
0010
1000
0001
,
0010
0100
0110
0000
,
0100
0010
0001
0100
,
0020
0000
2030
0000
,
3002
0000
2003
0000
,
3100
0100
0100
0100
,
0010
0010
0010
0010
,
0002
0003
0002
0003
,
0001
1000
1001
0000
,
2000
3000
2000
3000
,
0001
1000
1001
0000
,
0200
0300
0020
0030
,
0100
0010
0110
0000
,
0020
0030
2000
3000
,
0001
1000
1001
0000
,
0000
1000
0001
1000
,
0001
0000
2002
0000
,
0000
0000
0000
0000
,
0000
0000
0000
0000
,
0000
0000
0000
0000
,
0000
0000
0000
0000
,
0000
0000
0000
0000
,
0003
3000
0000
0000
0000
0000
0000
0000
0000
0000
0000
0000
0000
0000
0000
0000
0000
0000
0000
0000
0000
0000
0000
0000
0000
0000
0000
0000
0000
0000
0000
0000
0000
0000
0000
0000
0000
0000
0000
0000
0000
0000
0000
0000
0000
0000
0000
0000
0000
0000
0000
0000
0000
0000
0000
0000
0000
0000
0000
0000
0000
0000
0000
0000
0000
0000
0000
0000
0000
0000
0000
0000
0000
0000
0000
0000
0000
0000
0000
0000
0000
0000
0000
0000
0000
0000
0000
0000
0000
0000
0000
0000
0000
0000
0000
0000
0000
0000
0000
0000
0000
0000
0000
0000
0000
0000
0000
0000
0000
0000
0000
0000
0000
0000
0000
0000
0000
0000
0000
0000
0000
0000
0000
0000
0000
0000
0000
0000
0000
0000
0000
0000
0000
0000
0000
0000
0000
0000
0000
0000
0000
0000
0000
0000
0000
0000
0000
0000
0000
0000
0000
0000
0000
0000
0000
0000
0000
0000
0000
0000
0000
0000
0000
0000
0000
0000
0000
0000
0000
0000
0000
0000
0000
0000
0000
0000
0000
0000
0000
0000
0000
0000
0000
0000
0000
0000
0000
0000
0000
0000
0000
0000
;

//---------------dance-single - Chewi----------------
#NOTES:
     dance-single:
     Chewi:
     Medium:
     7:
     0.371,0.498,0.609,0.045,0.006: // measure 1
0000
0000
0000
0000
,  // measure 2
0000
0000
0000
0000
,  // measure 3
0000
0000
0000
0000
,  // measure 4
0000
0000
0000
0000
,  // measure 5
1001
0000
0000
0001
0000
0000
1000
0000
,  // measure 6
0001
1100
1000
0101
,  // measure 7
0100
0000
0000
0010
0000
0000
0000
0000
,  // measure 8
0100
0010
0100
0010
0000
0010
0100
0000
,  // measure 9
0000
0000
0010
1000
0010
0000
1000
0000
,  // measure 10
0001
1000
0100
0000
0010
0000
0001
0000
,  // measure 11
0011
0000
0000
0000
0000
0000
0001
1000
,  // measure 12
0001
0000
1000
0001
1000
0000
1001
0000
,  // measure 13
0000
0000
1000
0010
1000
0000
0100
0000
,  // measure 14
0010
0001
0010
0000
0100
0000
1000
0000
,  // measure 15
0010
0000
0100
0000
0001
0100
0001
0000
,  // measure 16
1000
1100
0001
0101
,  // measure 17
0110
0000
0100
0000
0010
0000
0100
0010
,  // measure 18
0000
0010
0000
1000
0010
1000
0000
0000
,  // measure 19
0010
0000
0001
0000
0010
0000
0100
0010
,  // measure 20
0000
0010
0000
0001
0010
0001
0000
0000
,  // measure 21
1000
0001
1000
0000
0010
0000
0100
0000
,  // measure 22
0001
1000
0001
0000
0010
0000
0100
0000
,  // measure 23
1000
0010
1000
0000
0001
0100
0001
0000
,  // measure 24
1000
1100
0001
0101
,  // measure 25
1000
0010
1000
0000
0001
0100
0001
0100
,  // measure 26
0000
0000
0000
0000
0010
0100
0010
0000
,  // measure 27
1010
0101
1010
0101
,  // measure 28
2000
0100
0010
3100
,  // measure 29
0011
1100
0011
1100
,  // measure 30
0002
0100
0010
1003
,  // measure 31
1001
0101
1001
1100
,  // measure 32
1000
0001
1000
0000
0001
0000
0010
0000
,  // measure 33
0100
1000
1100
0000
,  // measure 34
1000
0100
1000
0000
0001
0100
0001
0000
,  // measure 35
1100
0011
1100
0011
,  // measure 36
1100
1100
0101
0000
,  // measure 37
0101
1010
0101
1010
,  // measure 38
0101
0101
1001
0000
,  // measure 39
1001
1001
0110
0110
,  // measure 40
1001
1001
0110
0110
,  // measure 41
1010
1010
0101
0101
,  // measure 42
1100
0011
1100
0011
,  // measure 43
0000
1000
0100
1000
0001
0100
0001
0100
,  // measure 44
0010
0000
0000
1000
0000
0000
2002
0000
0000
0000
0000
0000
0000
0000
0000
0000
,  // measure 45
0000
0000
0000
0000
,  // measure 46
0000
0000
0000
0000
,  // measure 47
0000
0000
0000
0000
,  // measure 48
0000
0000
0000
0000
,  // measure 49
0000
0000
0000
0000
,  // measure 50
3003
0000
0000
0000
;

//---------------dance-single - Chewi----------------
#NOTES:
     dance-single:
     Chewi:
     Hard:
     11:
     0.437,0.580,0.361,0.237,0.164: // measure 1
0000
0000
0000
0000
,  // measure 2
0000
0000
0000
0000
,  // measure 3
0000
0000
0000
0000
,  // measure 4
0000
0000
0000
0000
,  // measure 5
1010
0000
0000
0101
0000
0000
1001
0000
,  // measure 6
1100
1100
0011
0011
,  // measure 7
1001
0000
0000
0110
0000
0000
0000
0000
,  // measure 8
1000
0001
0010
0100
0000
1000
1100
0000
,  // measure 9
0000
0000
0000
0000
0001
0000
0100
0010
0000
0000
1000
0000
0100
0000
0010
0001
,  // measure 10
0000
0010
0000
0100
1000
0010
0100
0001
,  // measure 11
0000
0000
1001
0000
0000
0000
0000
0000
0000
0000
1000
0000
0000
0100
0000
0000
,  // measure 12
0010
0000
0000
0100
0000
0000
1000
0000
0000
0001
0000
0000
1000
0000
0000
0000
,  // measure 13
0000
0000
0000
0000
0001
0000
0010
0001
0000
0000
1000
0000
0010
0000
0100
0001
,  // measure 14
0000
1000
0000
0001
0010
0100
1000
0100
,  // measure 15
0000
0000
1100
0000
1000
0000
0000
0001
0000
0000
1000
0000
0001
1000
0000
0000
,  // measure 16
0001
0000
0000
0010
0000
0000
0100
1000
0100
0000
1000
0000
0010
0000
0100
0000
,  // measure 17
0002
0000
2003
0000
3020
0000
0130
0010
,  // measure 18
0000
1010
0000
0000
1000
0100
0010
0001
,  // measure 19
0200
0000
0320
0000
2030
0000
3100
1000
,  // measure 20
0000
1100
0000
0000
1000
0100
0010
0100
,  // measure 21
2000
0000
3020
0000
0230
0000
0301
0100
,  // measure 22
0000
0101
0000
0000
0001
0100
0001
0010
,  // measure 23
0001
0000
1000
0010
0000
0000
1000
0001
,  // measure 24
0000
0000
0001
1000
0000
0100
0100
0200
,  // measure 25
0000
0000
0300
0000
0000
0010
0010
0020
,  // measure 26
0000
0000
0030
0000
0001
1000
0001
0000
,  // measure 27
1000
0000
0010
1000
0000
0010
1000
0000
0000
0000
1000
0000
0010
0000
0200
0000
,  // measure 28
0000
0302
0000
2003
0000
3100
0100
0000
,  // measure 29
0010
0000
0001
0010
0000
0001
0010
0000
0000
0000
0001
0000
1000
0000
0020
0000
,  // measure 30
0000
0130
0100
0220
0000
0000
0330
0000
,  // measure 31
1000
0000
0010
1000
0000
0010
1000
0000
0000
0000
0100
0000
0010
0000
0001
0000
,  // measure 32
1000
0001
1000
0001
1000
0000
0000
0000
1000
0000
0000
0010
0000
0000
0100
0000
,  // measure 33
0010
0000
0000
2020
0000
0000
3030
0000
,  // measure 34
0000
0000
1000
0000
1000
0000
0001
0000
0001
0000
1000
0000
0001
0000
0010
0001
,  // measure 35
0010
0000
0001
0010
0001
0000
0010
0001
0010
0000
0001
0010
0001
0000
0010
0000
,  // measure 36
0100
0000
1000
0000
0010
0000
1010
0000
0000
0000
0000
0000
0101
0000
0100
0001
,  // measure 37
0100
0000
0001
0100
0001
0000
0100
0001
0100
0000
0001
0100
0001
0000
0100
0000
,  // measure 38
0010
1000
0001
1000
1010
0000
0101
0000
,  // measure 39
0101
0000
0000
1010
0000
0000
1001
0000
,  // measure 40
0011
0011
1100
1100
,  // measure 41
1001
0000
0000
0101
0000
0000
0000
0000
,  // measure 42
1000
0100
0010
0001
0000
0001
1001
0000
,  // measure 43
0000
1000
0100
1000
0010
0100
0001
0010
,  // measure 44
0001
0000
0000
1000
0000
0000
2002
0000
0000
0000
0000
0000
0000
0000
0000
0000
,  // measure 45
0000
0000
0000
0000
,  // measure 46
0000
0000
0000
0000
,  // measure 47
0000
0000
0000
0000
,  // measure 48
0000
0000
0000
0000
,  // measure 49
0000
0000
0000
0000
,  // measure 50
3003
0000
0000
0000
;
