#TITLE:Every Boy Every Girl;
#SUBTITLE:;
#ARTIST:西野カナ;
#TITLETRANSLIT:;
#SUBTITLETRANSLIT:;
#ARTISTTRANSLIT:NISHINO KANA;
#CREDIT:Chewi☆;
#BANNER:Every Boy Every Girl.png;
#BACKGROUND:Every Boy Every Girl-bg.png;
#LYRICSPATH:;
#CDTITLE:;
#MUSIC:Every Boy Every Girl.mp3;
#OFFSET:-0.525;
#SAMPLESTART:79.295;
#SAMPLELENGTH:15.000;
#SELECTABLE:YES;
#BPMS:0.000=128.000;
#STOPS:;
#BGCHANGES:;

//---------------dance-single - Chewi----------------
#NOTES:
     dance-single:
     Chewi:
     Beginner:
     2:
     0.157,0.210,0.045,0.072,0.000: // measure 1
0000
0000
0000
0000
,  // measure 2
0000
0000
0000
0000
,  // measure 3
0000
0000
0000
0000
,  // measure 4
0000
0000
0000
0000
,  // measure 5
1000
0000
0000
0000
,  // measure 6
0001
0000
0000
0000
,  // measure 7
1000
0000
0000
0000
,  // measure 8
0001
0000
0000
0000
,  // measure 9
0000
1000
0000
1000
,  // measure 10
0000
0001
0000
0001
,  // measure 11
0000
0100
0000
0100
,  // measure 12
0000
0010
0000
0010
,  // measure 13
0000
1000
0000
1000
,  // measure 14
0000
0001
0000
0001
,  // measure 15
0000
1000
0000
0001
,  // measure 16
0000
0010
0000
0100
,  // measure 17
0200
0000
0000
0300
,  // measure 18
0100
0000
0000
0000
,  // measure 19
0020
0000
0000
0030
,  // measure 20
0010
0000
0000
0000
,  // measure 21
0002
0000
0000
0003
,  // measure 22
0001
0000
0000
0000
,  // measure 23
2000
0000
0000
3000
,  // measure 24
1000
0000
0000
0000
,  // measure 25
1000
0000
0100
0000
,  // measure 26
0010
0000
0001
0000
,  // measure 27
1000
0000
0100
0000
,  // measure 28
0010
0000
0001
0000
,  // measure 29
0001
0000
0100
0000
,  // measure 30
0010
0000
1000
0000
,  // measure 31
0001
0000
0100
0000
,  // measure 32
0010
0000
1000
0000
,  // measure 33
2000
3000
2000
3000
,  // measure 34
0000
0000
1000
1000
,  // measure 35
1000
0000
0001
0000
,  // measure 36
1001
0000
0000
0000
,  // measure 37
0002
0003
0002
0003
,  // measure 38
0001
0001
0001
0001
,  // measure 39
0000
1000
0000
1001
,  // measure 40
0000
0001
0000
1001
,  // measure 41
0100
0000
0100
0000
,  // measure 42
0100
0100
0100
0100
,  // measure 43
0010
0000
0001
0000
,  // measure 44
0100
0100
0100
0000
,  // measure 45
1000
0000
0010
0000
,  // measure 46
1000
1000
1000
0000
,  // measure 47
1000
0000
0001
0000
,  // measure 48
1000
1000
1000
0000
,  // measure 49
0100
0000
0010
0000
,  // measure 50
0001
0001
0001
0000
,  // measure 51
1001
0000
1001
0000
,  // measure 52
1000
1000
1000
0000
,  // measure 53
0001
0000
1000
0000
,  // measure 54
1000
1000
1000
0000
,  // measure 55
0001
0000
1000
0000
,  // measure 56
0001
0001
0001
0000
,  // measure 57
0100
0000
0010
0000
,  // measure 58
0001
0000
0100
0000
,  // measure 59
1000
1000
1000
0000
;

//---------------dance-single - Chewi----------------
#NOTES:
     dance-single:
     Chewi:
     Easy:
     5:
     0.276,0.343,0.090,0.144,0.000: // measure 1
0000
0000
0000
0000
,  // measure 2
0000
0000
0000
0000
,  // measure 3
0000
0000
0000
0000
,  // measure 4
0000
0000
0000
0000
,  // measure 5
2000
0000
0000
3000
,  // measure 6
0200
0000
0000
0300
,  // measure 7
0002
0000
0000
0003
,  // measure 8
0020
0000
0000
0030
,  // measure 9
0010
0100
0010
0000
,  // measure 10
0100
0010
0110
0000
,  // measure 11
1000
0001
1000
0000
,  // measure 12
0001
1000
1001
0000
,  // measure 13
1000
0100
0001
0000
,  // measure 14
0001
1000
0010
0000
,  // measure 15
0010
1000
0001
0000
,  // measure 16
0001
0100
1000
0000
,  // measure 17
1000
0100
1000
0100
,  // measure 18
0001
0100
0001
0100
,  // measure 19
1000
0100
1000
0100
,  // measure 20
2000
3002
0203
0320
,  // measure 21
0130
0010
0100
0010
,  // measure 22
1000
0001
1000
0001
,  // measure 23
1000
0100
1000
0100
,  // measure 24
0020
0032
0203
0320
,  // measure 25
0130
0100
0100
0100
,  // measure 26
0010
0010
0010
0010
,  // measure 27
1000
1000
1000
1000
,  // measure 28
0001
0001
0001
0001
,  // measure 29
0001
0010
0100
0001
,  // measure 30
0010
1000
0100
0010
,  // measure 31
1000
0100
0001
0010
,  // measure 32
1000
0100
0010
1000
,  // measure 33
0100
0100
0010
0010
,  // measure 34
0001
1000
0010
0100
,  // measure 35
0001
0001
1000
1000
,  // measure 36
0100
0010
0001
1000
,  // measure 37
0010
0001
0100
0010
,  // measure 38
0001
0100
0010
1000
,  // measure 39
0100
0010
1000
0100
,  // measure 40
0010
1000
0001
0010
,  // measure 41
0110
0000
0110
0000
,  // measure 42
0100
0100
0010
0010
,  // measure 43
0002
1000
0010
1003
,  // measure 44
1000
0001
1000
1001
,  // measure 45
0000
0100
0100
0100
,  // measure 46
0100
0000
0000
0000
,  // measure 47
2001
0010
0001
3010
,  // measure 48
0001
1000
0001
1001
,  // measure 49
0110
0000
0110
0000
,  // measure 50
0100
0100
0100
0100
,  // measure 51
0010
0001
0010
0001
,  // measure 52
0100
1000
0010
0001
,  // measure 53
0100
0001
0100
0001
,  // measure 54
0010
0001
0010
0001
,  // measure 55
0010
1000
0010
1000
,  // measure 56
0100
0001
0010
1000
,  // measure 57
0100
0010
1000
0001
,  // measure 58
0010
0010
0100
0100
,  // measure 59
0220
0000
0000
0330
;

//---------------dance-single - Chewi----------------
#NOTES:
     dance-single:
     Chewi:
     Medium:
     7:
     0.376,0.370,0.279,0.126,0.000: // measure 1
0000
0000
0000
0000
,  // measure 2
0000
0000
0000
0000
,  // measure 3
0000
0000
0000
0000
,  // measure 4
0000
0000
0000
0000
,  // measure 5
1000
0000
0000
0010
0000
0100
0000
0001
,  // measure 6
0000
0001
1000
1001
,  // measure 7
0000
1000
0001
0010
,  // measure 8
0100
0100
0010
0010
,  // measure 9
0002
1003
2000
3001
,  // measure 10
1000
0010
1000
0000
0001
0010
0001
0000
,  // measure 11
0010
1000
0100
0001
,  // measure 12
0010
0001
0100
1000
,  // measure 13
0020
0130
0200
0310
,  // measure 14
0001
0010
0001
0000
1000
0100
1000
0000
,  // measure 15
1000
0001
0100
0010
,  // measure 16
1000
1100
0001
0011
,  // measure 17
1000
0000
1000
0000
1000
1000
0000
1000
,  // measure 18
0001
0000
0001
0000
0001
0001
0000
0001
,  // measure 19
0010
0000
0010
0000
0010
0010
0000
0010
,  // measure 20
0110
1001
0110
1001
,  // measure 21
0100
0000
0100
0000
0100
0100
0000
0100
,  // measure 22
1000
0000
1000
0000
1000
1000
0000
1000
,  // measure 23
0001
0000
0001
0000
0001
0001
0000
0001
,  // measure 24
1001
0101
1001
1010
,  // measure 25
1000
0000
1000
0001
1000
0000
0001
0000
,  // measure 26
0110
1000
0110
1001
,  // measure 27
0001
0000
0001
0000
0001
0100
0001
0000
,  // measure 28
0100
0110
1000
0110
,  // measure 29
0001
0000
1100
0000
1000
1000
1000
0000
,  // measure 30
1000
0000
0101
0000
0001
0001
0001
0000
,  // measure 31
0100
0010
1000
0001
,  // measure 32
0010
0110
0010
0110
,  // measure 33
0020
0031
0002
1003
,  // measure 34
1000
0100
1000
0000
0001
0100
0001
0000
,  // measure 35
1000
0001
0100
0010
,  // measure 36
1000
0001
0010
0100
,  // measure 37
2000
3100
0002
0013
,  // measure 38
0010
0100
0010
0000
0100
0010
0100
0000
,  // measure 39
0010
0011
1000
1100
,  // measure 40
0001
0100
0010
1000
,  // measure 41
1001
0000
1001
0000
,  // measure 42
0001
1000
0001
1000
0001
1000
0001
0000
,  // measure 43
2000
3100
0002
0103
,  // measure 44
0010
0110
0100
0110
,  // measure 45
1000
1000
1000
0000
0001
0001
0001
0000
,  // measure 46
1000
0100
0001
0100
,  // measure 47
0002
0013
2000
3010
,  // measure 48
0001
0010
0001
0000
1000
0010
1000
0000
,  // measure 49
0010
0110
1000
1001
,  // measure 50
0001
0010
0100
1000
,  // measure 51
0100
0100
0100
0000
0100
0100
0100
0000
,  // measure 52
0100
0010
0001
1000
,  // measure 53
0010
0010
0010
0000
0010
0010
0010
0000
,  // measure 54
0010
0100
0001
1000
,  // measure 55
0100
0001
0100
0000
0001
0010
0001
0000
,  // measure 56
0010
1000
0100
0010
,  // measure 57
0100
1000
0100
0000
1000
0010
1000
0000
,  // measure 58
0010
0100
0001
1000
,  // measure 59
1001
1001
2002
3003
;

//---------------dance-single - Chewi----------------
#NOTES:
     dance-single:
     Chewi:
     Hard:
     9:
     0.421,0.422,0.171,0.198,0.004:
0000
0000
0000
0000
,
0000
0000
0000
0000
,
0000
0000
0000
0000
,
0000
0000
0000
0000
,
1000
0000
0010
0100
0000
0001
0000
0010
,
0000
0001
0010
0100
1000
0000
0010
0000
,
0000
1000
0100
0010
0001
1000
0010
1000
,
1010
0101
0011
1100
,
0002
0000
1003
0020
0000
0130
0000
0001
,
0000
0010
0100
1000
0010
0000
0100
0000
,
0000
0010
0100
0001
1000
0100
0010
0100
,
0010
0001
0010
0100
,
2000
0000
3010
2000
0000
3001
0000
0010
,
0000
0100
1000
0010
0100
0000
0001
0000
,
0100
0010
1000
0001
0010
0100
1000
0001
,
1000
0100
0010
0001
,
1001
0000
0100
0000
1000
0010
1000
0000
,
1001
0000
0100
0000
0001
0010
0001
0000
,
0010
0000
0100
0000
1000
0010
0100
0000
,
0002
0203
0320
2030
,
3001
0000
0010
0000
0100
0010
0001
0000
,
1000
0000
1010
0000
0100
0010
0100
0000
,
0001
0000
1000
0000
0100
0010
0100
0000
,
2000
3200
0320
0032
,
1003
0100
1000
0000
0001
1000
0001
0000
,
0001
0100
0001
0000
1000
0001
1000
0000
,
0010
0100
0010
0000
1000
0100
0010
0000
,
0001
0100
0001
0000
0100
0010
0100
0000
,
0001
0000
1100
0000
0010
0001
1000
0000
,
0010
0000
1001
0000
0100
0001
1000
0000
,
1000
0000
1100
0000
0010
0001
1000
0000
,
0001
0000
0101
0000
1000
0010
0100
0000
,
0002
0000
1003
0000
0001
1000
0100
0000
,
0010
0011
1000
1100
,
0001
1000
0001
0000
1000
0001
1000
0000
,
0010
0001
0100
1000
,
2000
0000
3010
0000
1000
0100
1000
0000
,
0001
0011
0010
1100
,
1000
0001
0010
0000
0001
1000
0100
0000
,
0010
0001
1000
0100
,
1001
0000
1001
0000
,
1000
1000
0001
0001
1000
0010
0100
0001
,
0200
0000
0310
2000
0000
3001
0000
0010
,
0000
0100
1000
0010
1000
0000
0100
0000
,
0000
0010
0001
1000
0010
0100
0001
0100
,
0010
1000
0001
1000
,
0200
0000
0310
0002
0000
1003
0000
0010
,
0000
0100
0001
0100
0010
0000
1000
0000
,
0001
0110
1000
0110
,
0100
1000
0010
0000
0100
0001
0010
0000
,
0200
0000
0310
0002
0000
1003
0000
0010
,
0000
0100
0001
0100
0010
0000
1000
0000
,
0000
0001
0010
0100
1000
0010
0100
0001
,
0100
0010
1000
0001
,
2000
0000
3001
0020
0000
0130
0000
0010
,
0000
0001
0010
0100
1000
0000
0010
0000
,
0000
0100
0010
1000
0001
0010
0100
1000
,
0001
1000
0001
1000
0010
1000
0010
1000
,
0010
0000
0100
0000
0001
0000
1000
0000
0100
0000
0000
0010
0000
0000
0000
0000
;
