#VERSION:0.83;
#TITLE:Esta Noche;
#SUBTITLE:;
#ARTIST:Azealia Banks;
#TITLETRANSLIT:;
#SUBTITLETRANSLIT:;
#ARTISTTRANSLIT:;
#GENRE:Hip-Hop/Rap;
#ORIGIN:;
#CREDIT:chewi;
#BANNER:Esta Noche.png;
#BACKGROUND:Esta Noche-bg.png;
#PREVIEWVID:;
#JACKET:Esta Noche-jacket.png;
#CDIMAGE:;
#DISCIMAGE:;
#LYRICSPATH:;
#CDTITLE:cdtitle.png;
#MUSIC:Esta Noche.ogg;
#OFFSET:-0.034620;
#SAMPLESTART:43.379360;
#SAMPLELENGTH:15.000000;
#SELECTABLE:YES;
#DISPLAYBPM:54.000000:432.000000;
#BPMS:0.000=108.000,
80.000=54.000,
96.000=108.000,
128.000=216.000,
160.000=432.000,
216.000=54.000,
217.000=108.000;
#STOPS:;
#DELAYS:;
#WARPS:;
#TIMESIGNATURES:0.000=4=4;
#TICKCOUNTS:0.000=4;
#COMBOS:0.000=1;
#SPEEDS:0.000=1.000=0.000=0;
#SCROLLS:0.000=1.000;
#FAKES:;
#LABELS:0.000=Song Start;
#BGCHANGES:;
#KEYSOUNDS:;
#ATTACKS:
;

//---------------dance-single - ----------------
#NOTEDATA:;
#CHARTNAME:;
#STEPSTYPE:dance-single;
#DESCRIPTION:;
#CHARTSTYLE:;
#DIFFICULTY:Beginner;
#METER:2;
#RADARVALUES:0.052909,0.078928,0.000000,0.036133,0.000000,41.000000,41.000000,0.000000,4.000000,0.000000,0.000000,0.000000,0.000000,0.000000,0.052909,0.078928,0.000000,0.036133,0.000000,41.000000,41.000000,0.000000,4.000000,0.000000,0.000000,0.000000,0.000000,0.000000;
#CREDIT:;
#DISPLAYBPM:108.000000;
#NOTES:
// measure 0
0000
0000
0000
0000
,  // measure 1
0000
0000
0000
0000
,  // measure 2
0000
0000
0000
0000
,  // measure 3
0000
0000
0000
0000
,  // measure 4
1000
0000
0000
0000
,  // measure 5
1000
0000
0000
0000
,  // measure 6
0001
0000
0000
0000
,  // measure 7
0001
0000
0000
0000
,  // measure 8
0100
0000
0000
0000
,  // measure 9
0100
0000
0000
0000
,  // measure 10
0010
0000
0000
0000
,  // measure 11
0010
0000
0000
0000
,  // measure 12
1000
0000
0000
0000
,  // measure 13
1000
0000
0000
0000
,  // measure 14
0100
0000
0000
0000
,  // measure 15
0100
0000
0000
0000
,  // measure 16
0010
0000
0000
0000
,  // measure 17
0010
0000
0000
0000
,  // measure 18
0001
0000
0000
0000
,  // measure 19
0001
0000
0000
0000
,  // measure 20
0020
0000
0000
0030
,  // measure 21
0200
0000
0000
0300
,  // measure 22
2000
0000
0000
3000
,  // measure 23
0002
0000
0000
0003
,  // measure 24
0001
0000
0000
0000
,  // measure 25
0100
0000
0000
0000
,  // measure 26
0001
0000
0000
0000
,  // measure 27
0100
0000
0000
0000
,  // measure 28
1000
0000
0000
0000
,  // measure 29
0100
0000
0000
0000
,  // measure 30
1000
0000
0000
0000
,  // measure 31
0100
0000
0000
0000
,  // measure 32
1000
0000
0000
0000
,  // measure 33
0000
0000
0000
0000
,  // measure 34
1000
0000
0000
0000
,  // measure 35
0000
0000
0000
0000
,  // measure 36
1000
0000
0000
0000
,  // measure 37
0000
0000
0000
0000
,  // measure 38
1000
0000
0000
0000
,  // measure 39
0000
0000
0000
0000
,  // measure 40
0001
0000
0000
0000
,  // measure 41
0000
0000
0000
0000
,  // measure 42
0000
0000
0000
0000
,  // measure 43
0000
0000
0000
0000
,  // measure 44
0001
0000
0000
0000
,  // measure 45
0000
0000
0000
0000
,  // measure 46
0000
0000
0000
0000
,  // measure 47
0000
0000
0000
0000
,  // measure 48
0001
0000
0000
0000
,  // measure 49
0000
0000
0000
0000
,  // measure 50
0000
0000
0000
0000
,  // measure 51
0000
0000
0000
0000
,  // measure 52
0001
0000
0000
0000
,  // measure 53
0000
0000
0000
0000
,  // measure 54
0000
0100
0000
0000
,  // measure 55
0000
0100
0000
0000
,  // measure 56
0000
0010
0000
0000
,  // measure 57
0000
0010
0000
0000
,  // measure 58
0000
1000
0000
0000
;

//---------------dance-single - ----------------
#NOTEDATA:;
#CHARTNAME:;
#STEPSTYPE:dance-single;
#DESCRIPTION:;
#CHARTSTYLE:;
#DIFFICULTY:Hard;
#METER:12;
#RADARVALUES:0.411659,0.591227,0.361330,0.054200,0.203248,319.000000,279.000000,40.000000,6.000000,24.000000,0.000000,0.000000,0.000000,0.000000,0.411659,0.591227,0.361330,0.054200,0.203248,319.000000,279.000000,40.000000,6.000000,24.000000,0.000000,0.000000,0.000000,0.000000;
#CREDIT:;
#DISPLAYBPM:108.000000;
#NOTES:
// measure 0
0000
0000
0000
0000
,  // measure 1
0000
0000
0000
MMMM
,  // measure 2
0000
0000
0000
0000
,  // measure 3
0000
0000
0000
MMMM
,  // measure 4
1000
0100
1000
0100
1000
0000
0000
0000
0001
0000
0000
0000
1001
0000
0000
0000
,  // measure 5
0100
0010
1000
0001
0010
0100
1000
0000
,  // measure 6
0001
1000
0001
1000
0001
0000
1000
0000
0001
0000
0000
0000
0101
0000
0000
0000
,  // measure 7
0100
0010
1000
0000
1010
0000
MMMM
0000
,  // measure 8
1000
0100
1000
0100
1000
0000
0000
0000
0100
0000
0000
0000
1001
0000
0000
0000
,  // measure 9
0100
0010
1000
0000
0010
0100
0001
0000
,  // measure 10
0101
0000
0000
0101
0000
0000
0101
0000
0000
0000
0100
0000
0100
0000
0010
0000
,  // measure 11
1010
0000
0000
1010
0000
0000
1010
0000
0000
0000
0000
0000
MMMM
0000
0000
0000
,  // measure 12
0001
0010
0001
0010
0001
0000
0000
0000
1000
0000
0000
0000
1001
0000
0000
0000
,  // measure 13
0010
0100
0001
1000
0100
0010
0001
0000
,  // measure 14
1000
0001
1000
0001
1000
0000
0001
0000
1000
0000
0000
0000
1010
0000
0000
0000
,  // measure 15
0010
0100
0001
0000
0010
0000
MMMM
0000
,  // measure 16
0001
0010
0001
0010
0001
0000
0000
0000
0010
0000
0000
0000
1001
0000
0000
0000
,  // measure 17
0010
0100
0001
0000
0100
0010
1000
0000
,  // measure 18
1010
0000
0000
1010
0000
0000
1010
0000
0000
0000
0010
0000
0010
0000
0100
0000
,  // measure 19
0101
0000
0000
0101
0000
0000
0101
0000
0100
0000
0001
0000
1000
0000
0010
0000
,  // measure 20
2000
3100
0010
0100
2000
3100
0010
0100
,  // measure 21
2000
3001
0100
0010
2000
3001
0010
0100
,  // measure 22
0020
0031
0100
0001
0020
0031
0100
0001
,  // measure 23
0100
0000
0010
0000
1000
0000
0001
0000
1000
1000
0001
0001
1000
1000
1001
0000
,  // measure 24
1000
0000
0000
1000
0010
0000
1000
0000
0001
0000
0000
0001
0100
0000
0001
0000
,  // measure 25
1000
0100
1000
0000
0001
0000
0010
0000
0100
1000
0001
0000
1000
0000
0001
0000
,  // measure 26
1000
0000
0000
1000
0001
0000
0100
0000
0010
0000
0000
0010
0100
0000
0001
0000
,  // measure 27
1000
0010
0100
0000
0001
0000
1000
0000
0001
0010
0100
0000
1000
0010
0100
0000
,  // measure 28
0001
0000
0000
0001
0100
0000
0010
0000
1000
0000
0000
1000
0010
0000
0100
0000
,  // measure 29
0001
1000
0100
0000
0010
0000
0100
0000
1000
0001
0010
0000
0100
0000
1000
0000
,  // measure 30
0100
0000
0000
0100
0001
0000
0100
0000
1000
0000
0000
0001
1000
0000
0010
0000
,  // measure 31
0100
0001
0010
0000
0001
0000
1000
0000
0001
1000
0001
0000
1000
0001
1000
0000
,  // measure 32
1001
0000
1001
0000
,  // measure 33
0110
0000
0110
0000
,  // measure 34
1010
0000
1010
0000
,  // measure 35
0101
0000
0101
0000
,  // measure 36
1000
0000
0100
0000
,  // measure 37
0010
0000
0001
0000
,  // measure 38
1000
0000
0100
0000
,  // measure 39
0010
0000
0001
0000
,  // measure 40
1001
0000
0000
0000
,  // measure 41
1001
0000
0000
0000
,  // measure 42
0110
0000
0000
0000
,  // measure 43
0110
0000
0000
0000
,  // measure 44
0101
0000
0000
0000
,  // measure 45
0101
0000
0000
0000
,  // measure 46
1010
0000
0000
0000
,  // measure 47
1010
0000
0000
0000
,  // measure 48
0001
0000
0000
0000
,  // measure 49
0010
0000
0000
0000
,  // measure 50
0100
0000
0000
0000
,  // measure 51
1000
0000
0000
0000
,  // measure 52
0001
0000
0000
0000
,  // measure 53
0010
0000
0000
0000
,  // measure 54
0100
0100
0100
0100
1000
0001
1000
0001
1000
0000
0000
0000
0100
0000
0000
0000
,  // measure 55
0110
0000
1000
0001
0010
0100
0001
0100
,  // measure 56
0010
0000
0000
0000
0100
0010
0100
0010
0100
0000
0010
0000
0100
0000
0000
0000
,  // measure 57
1100
0000
1000
0001
0010
0000
0011
0000
,  // measure 58
MMMM
0000
0000
0000
0010
1000
0010
1000
0010
0000
0000
0000
1000
0000
0000
0000
,  // measure 59
0110
0000
1000
0001
0010
0000
0000
0000
;

//---------------dance-single - ----------------
#NOTEDATA:;
#CHARTNAME:;
#STEPSTYPE:dance-single;
#DESCRIPTION:;
#CHARTSTYLE:;
#DIFFICULTY:Easy;
#METER:5;
#RADARVALUES:0.121304,0.187327,0.000000,0.036133,0.000000,94.000000,94.000000,0.000000,4.000000,0.000000,0.000000,0.000000,0.000000,0.000000,0.121304,0.187327,0.000000,0.036133,0.000000,94.000000,94.000000,0.000000,4.000000,0.000000,0.000000,0.000000,0.000000,0.000000;
#CREDIT:;
#DISPLAYBPM:108.000000;
#NOTES:
// measure 0
0000
0000
0000
0000
,  // measure 1
0000
0000
0000
0000
,  // measure 2
0000
0000
0000
0000
,  // measure 3
0000
0000
0000
0000
,  // measure 4
1000
0000
0100
0000
,  // measure 5
0010
0010
0010
0000
,  // measure 6
0001
0000
0100
0000
,  // measure 7
0010
0010
0010
0000
,  // measure 8
1000
0000
0001
0000
,  // measure 9
1000
0001
0100
0000
,  // measure 10
0001
0000
1000
0000
,  // measure 11
0001
1000
0100
0000
,  // measure 12
0010
0000
0100
0000
,  // measure 13
1000
1000
1000
0000
,  // measure 14
0010
0000
0100
0000
,  // measure 15
0001
0001
0001
0000
,  // measure 16
0100
0000
0001
0000
,  // measure 17
0100
0010
1000
0000
,  // measure 18
0100
0000
1000
0000
,  // measure 19
0100
0010
0001
0000
,  // measure 20
0002
0000
0000
0003
,  // measure 21
2000
0000
0000
3000
,  // measure 22
0020
0000
0000
0030
,  // measure 23
0200
0000
0000
0300
,  // measure 24
0100
0010
0100
0000
,  // measure 25
0010
0100
0010
0000
,  // measure 26
1000
0001
1000
0000
,  // measure 27
0001
1000
0001
0000
,  // measure 28
1000
0100
0010
0000
,  // measure 29
0010
0100
1000
0000
,  // measure 30
0001
0100
0010
0000
,  // measure 31
0010
0100
0001
0000
,  // measure 32
0001
0000
0000
0000
,  // measure 33
0001
0000
0000
0000
,  // measure 34
0001
0000
0000
0000
,  // measure 35
0001
0000
0000
0000
,  // measure 36
1000
0000
0000
0000
,  // measure 37
1000
0000
0000
0000
,  // measure 38
1000
0000
0000
0000
,  // measure 39
1000
0000
0000
0000
,  // measure 40
0001
0000
0000
0000
,  // measure 41
0000
0000
0000
0000
,  // measure 42
1000
0000
0000
0000
,  // measure 43
0000
0000
0000
0000
,  // measure 44
0001
0000
0000
0000
,  // measure 45
0000
0000
0000
0000
,  // measure 46
1000
0000
0000
0000
,  // measure 47
0000
0000
0000
0000
,  // measure 48
0001
0000
0000
0000
,  // measure 49
0000
0000
0000
0000
,  // measure 50
1000
0000
0000
0000
,  // measure 51
0000
0000
0000
0000
,  // measure 52
0001
0000
0000
0000
,  // measure 53
0000
0000
0000
0000
,  // measure 54
1000
1000
0000
0000
,  // measure 55
0000
0100
0100
0100
,  // measure 56
0000
0001
0000
0000
,  // measure 57
0000
0010
0010
0010
,  // measure 58
0000
1000
0000
0000
,  // measure 59
0000
0100
0000
0000
;

//---------------dance-single - ----------------
#NOTEDATA:;
#CHARTNAME:;
#STEPSTYPE:dance-single;
#DESCRIPTION:;
#CHARTSTYLE:;
#DIFFICULTY:Medium;
#METER:8;
#RADARVALUES:0.229703,0.347893,0.045166,0.054200,0.027100,178.000000,173.000000,5.000000,6.000000,16.000000,0.000000,0.000000,0.000000,0.000000,0.229703,0.347893,0.045166,0.054200,0.027100,178.000000,173.000000,5.000000,6.000000,16.000000,0.000000,0.000000,0.000000,0.000000;
#CREDIT:;
#DISPLAYBPM:108.000000;
#NOTES:
// measure 0
0000
0000
0000
0000
,  // measure 1
0000
0000
0000
0000
,  // measure 2
0000
0000
0000
0000
,  // measure 3
0000
0000
0000
0000
,  // measure 4
1000
0100
1000
0000
0200
0000
0300
0000
,  // measure 5
0010
0001
0100
0000
,  // measure 6
0001
0100
0001
0000
0200
0000
0300
0000
,  // measure 7
0010
1000
0100
MMMM
,  // measure 8
0100
0010
0100
0000
2000
0000
3000
0000
,  // measure 9
0001
0100
0010
1000
,  // measure 10
1000
0000
0000
1000
0000
0000
1000
0000
0000
0000
0000
0000
1001
0000
0000
0000
,  // measure 11
0001
0000
0000
0001
0000
0000
0001
0000
0000
0000
0000
0000
MMMM
0000
0000
0000
,  // measure 12
0001
0010
0001
0000
0020
0000
0030
0000
,  // measure 13
0100
1000
0010
0000
,  // measure 14
1000
0010
1000
0000
0020
0000
0030
0000
,  // measure 15
0100
0001
0010
MMMM
,  // measure 16
0010
0100
0010
0000
0002
0000
0003
0000
,  // measure 17
1000
0010
0100
0001
,  // measure 18
0001
0000
0000
0001
0000
0000
0001
0000
0000
0000
0000
0000
1001
0000
0000
0000
,  // measure 19
1000
0000
0000
1000
0000
0000
1000
0000
0001
0000
0010
0000
0100
0000
1000
0000
,  // measure 20
0100
0000
1000
0000
0100
0000
1000
0001
,  // measure 21
0100
0000
0010
0000
0100
0000
0010
1000
,  // measure 22
0100
0000
0010
0000
0001
0000
1000
0001
,  // measure 23
0100
0000
0010
0000
1000
0000
0001
1000
,  // measure 24
1000
1000
0001
0001
,  // measure 25
1000
0100
0010
0000
0001
0010
0100
0000
,  // measure 26
1000
1000
0001
0001
,  // measure 27
1000
0010
1000
0000
0010
1000
0010
0000
,  // measure 28
1000
1000
0001
0001
,  // measure 29
1000
0100
0010
0000
0100
0010
0001
0000
,  // measure 30
0001
0001
0010
0010
,  // measure 31
0100
0010
0001
0000
0001
0010
0100
0000
,  // measure 32
1000
0000
0100
0000
,  // measure 33
0001
0000
0100
0000
,  // measure 34
1000
0000
0100
0000
,  // measure 35
0001
0000
0100
0000
,  // measure 36
1000
0000
0010
0000
,  // measure 37
0001
0000
0010
0000
,  // measure 38
1000
0000
0010
0000
,  // measure 39
0001
0000
0010
0000
,  // measure 40
1000
0000
0000
0000
,  // measure 41
0100
0000
0000
0000
,  // measure 42
0001
0000
0000
0000
,  // measure 43
0100
0000
0000
0000
,  // measure 44
1000
0000
0000
0000
,  // measure 45
0100
0000
0000
0000
,  // measure 46
0001
0000
0000
0000
,  // measure 47
0100
0000
0000
0000
,  // measure 48
1000
0000
0000
0000
,  // measure 49
0010
0000
0000
0000
,  // measure 50
0001
0000
0000
0000
,  // measure 51
0010
0000
0000
0000
,  // measure 52
1000
0000
0000
0000
,  // measure 53
0010
0000
0000
0000
,  // measure 54
0100
0100
0001
0001
1000
0000
0000
0000
1000
0000
0000
0000
0100
0000
0000
0000
,  // measure 55
1000
0010
0010
0100
,  // measure 56
0100
0110
0100
0010
,  // measure 57
0010
1000
0100
0010
,  // measure 58
MMMM
1001
0000
0000
,  // measure 59
0000
0110
0000
0000
;
