#TITLE:Environmental Product;
#SUBTITLE:;
#ARTIST:BRISK & VAGABOND;
#TITLETRANSLIT:;
#SUBTITLETRANSLIT:;
#ARTISTTRANSLIT:;
#GENRE:;
#CREDIT:xRGTMx;
#MENUCOLOR:;
#METERTYPE:DDR;
#BANNER:Environmental Product.png;
#BACKGROUND:Environmental Product-bg.png;
#LYRICSPATH:;
#CDTITLE:;
#MUSIC:Environmental Product.mp3;
#OFFSET:-0.060;
#SAMPLESTART:91.460;
#SAMPLELENGTH:10.880;
#SELECTABLE:YES;
#LISTSORT:;
#BPMS:0.000=177.140,64.000=88.570,120.000=177.140;
#STOPS:;
#BGCHANGES:;
#ATTACKS:;

//---------------dance-single - xRGTMx----------------
#NOTES:
     dance-single:
     xRGTMx:
     Hard:
     15:
     0.740,1.000,0.237,0.035,1.000: // measure 1
0000
0000
0000
0000
,  // measure 2
0000
0000
0000
0000
,  // measure 3
0000
0000
0000
0000
,  // measure 4
0000
0000
0000
0000
,  // measure 5
1001
0000
1000
0001
0000
0010
0100
0000
0100
1000
0000
0100
,  // measure 6
0010
0000
0010
0100
1000
0001
0010
0000
0100
0010
0000
0100
,  // measure 7
1000
0000
0100
0010
0000
0100
1000
0000
0100
0010
0000
0001
,  // measure 8
1000
0000
0000
1100
0000
0000
1001
0000
1000
0001
0000
0000
,  // measure 9
1001
0000
1000
0001
0000
0001
0010
0100
1000
0001
0000
1000
,  // measure 10
0010
0000
0010
0100
0000
0100
0001
0010
0100
1000
0000
0010
,  // measure 11
0100
0000
0010
1000
0000
0100
0001
0100
1000
0001
0000
1000
,  // measure 12
0010
0000
1000
1001
0000
0000
0120
0000
0000
0130
0000
0000
,  // measure 13
1010
0000
0010
0100
0001
1000
0100
0000
0100
0010
0100
1000
,  // measure 14
0010
0000
0010
0100
0001
0010
0100
0000
1000
0010
0000
0100
,  // measure 15
0001
0000
1000
0100
0001
0100
1000
0000
0001
0100
1000
0100
,  // measure 16
0001
0000
1000
0100
0000
0010
0100
0000
0000
0110
0000
0000
,  // measure 17
2002
0000
0000
0000
,  // measure 18
0000
0000
0000
0000
,  // measure 19
0000
0000
0000
0000
,  // measure 20
0000
0000
0000
0000
,  // measure 21
0000
0000
0000
0000
,  // measure 22
0000
0000
3003
0000
,  // measure 23
1001
0100
0010
0100
0011
0100
1000
0010
,  // measure 24
0101
0010
1000
0100
0110
1000
0001
0100
,  // measure 25
1010
0100
0001
0010
1100
0010
0001
1000
,  // measure 26
0011
0100
1000
0001
0110
1000
0001
1000
,  // measure 27
0010
0000
0100
0000
0000
0100
0000
0000
0001
1000
0001
1000
0010
0000
0010
0100
0000
0100
0001
0000
0001
1000
0001
1000
,  // measure 28
0001
0000
0010
0000
0000
0010
0000
0000
0100
1000
0100
1000
0100
0000
1000
0010
0000
0100
0001
0000
1000
0100
0001
0100
,  // measure 29
0010
0000
0100
0000
0000
0100
0000
0000
1000
0001
1000
0001
0010
0000
0010
0100
0000
0100
1000
0000
1000
0001
1000
0001
,  // measure 30
1000
0000
0010
0000
0000
0010
0000
0000
0100
1000
0100
1000
0100
0000
1000
0010
0000
0100
0001
0000
1000
0100
0001
0100
,  // measure 31
1000
0000
1000
0001
0000
0001
1000
0000
1000
0001
0010
0100
,  // measure 32
1000
0000
1000
0010
0000
0010
1000
0000
1000
0010
0100
0001
,  // measure 33
0010
0000
0010
0100
0000
0100
1000
0000
1000
0100
0001
0100
,  // measure 34
1000
0000
1000
0100
0000
0100
0001
0000
0001
0100
1000
0100
,  // measure 35
1000
0000
1000
0010
0000
0010
0001
0000
0001
0010
1000
0010
,  // measure 36
1000
0000
1000
0001
0000
0001
1000
0000
1000
0001
0000
0000
,  // measure 37
1100
0000
0000
0110
0000
0000
0011
0000
0010
0001
0000
0001
,  // measure 38
1000
0100
1000
0000
0000
0001
1001
0000
0000
0110
0000
0000
,  // measure 39
1000
0000
0100
0001
0000
0100
1000
0000
0100
0001
0100
1000
,  // measure 40
0010
0000
0001
0010
0000
1000
0010
0000
0001
0010
1000
0100
,  // measure 41
0010
0000
0100
1000
0000
0100
0010
0000
0001
0010
0100
0010
,  // measure 42
0001
0000
1000
0010
0100
0001
1000
0000
0100
0010
0001
1000
,  // measure 43
0001
0000
0100
1000
0000
0100
0001
0000
0100
1000
0100
0001
,  // measure 44
0010
0000
1000
0010
0000
0001
0010
0000
1000
0010
0001
0100
,  // measure 45
0010
0000
0100
0001
0000
0100
0010
0000
1000
0010
0100
0010
,  // measure 46
1000
0000
0001
0010
0100
1000
0001
0000
0100
0010
1000
0001
,  // measure 47
1000
0100
1000
0100
0000
0100
0010
0000
0100
1000
0000
0100
,  // measure 48
0010
0001
0010
0001
0000
0100
0001
0000
0010
0001
0000
1000
,  // measure 49
0010
0100
0010
1000
0000
0001
0010
0000
0100
1000
0000
0001
,  // measure 50
0100
1000
0100
0001
0000
1000
0100
0001
0100
1000
0001
1000
,  // measure 51
0010
0000
0100
0001
1000
0100
0010
0000
0010
0100
0000
0100
,  // measure 52
1000
0000
1000
0010
0001
0010
0100
0000
0100
0001
0000
0001
,  // measure 53
0010
0000
0010
0100
1000
0100
0010
0000
0010
0001
0000
0001
,  // measure 54
0011
0000
0000
1100
0000
0000
2001
0000
0000
0001
0000
3001
,  // measure 55
1000
0000
1000
0010
0000
0010
0100
0001
1000
0100
0000
0100
,  // measure 56
0010
0100
1000
0010
0100
0010
1000
0100
0010
0100
0000
0100
,  // measure 57
1000
0000
1000
0001
0000
0001
0100
0010
0100
0001
0000
0001
,  // measure 58
1000
0100
0010
0100
0000
0100
1000
0001
0100
0010
0000
0100
,  // measure 59
0001
0000
0010
0100
0000
1000
0010
0100
0001
0010
0000
0100
,  // measure 60
1000
0001
0100
0010
0100
0001
0010
0100
1000
0001
0000
0001
,  // measure 61
1000
0000
1000
0010
0000
0100
0010
0100
0001
0010
0000
0010
,  // measure 62
0100
1000
0100
0010
0100
1000
0100
0010
0001
0010
0100
0010
,  // measure 63
0001
0000
0001
0010
0000
0010
0100
1000
0001
0100
0000
0100
,  // measure 64
0010
0100
0001
0010
0100
0010
0001
0100
0010
0100
0000
0100
,  // measure 65
0001
0000
0001
1000
0000
1000
0100
0010
0100
1000
0000
1000
,  // measure 66
0001
0100
0010
0100
0000
0100
0001
1000
0100
0010
0000
0100
,  // measure 67
1000
0000
0010
0100
0000
0001
0010
0100
1000
0010
0000
0100
,  // measure 68
0001
1000
0100
0010
0100
1000
0010
0100
0001
1000
0000
1000
,  // measure 69
0001
1000
0001
0010
0100
1000
0010
0100
0001
0010
1000
0010
,  // measure 70
0100
1000
0100
0000
0000
0010
0011
0000
0000
1001
0000
0000
;

//---------------dance-single - xRGTMx----------------
#NOTES:
     dance-single:
     xRGTMx:
     Medium:
     13:
     0.622,0.796,0.580,0.536,0.461: // measure 1
0000
0000
0000
0000
,  // measure 2
0000
0000
0000
0000
,  // measure 3
0000
0000
0000
0000
,  // measure 4
0000
0000
0000
0000
,  // measure 5
1001
0000
0000
0001
0000
1000
0010
0000
0000
0100
0000
0010
,  // measure 6
1000
0000
0100
0010
0000
0100
1000
0000
0000
1001
0000
0000
,  // measure 7
1000
0000
0000
0001
0000
0100
0010
0000
1000
0100
0000
0010
,  // measure 8
0001
0000
0000
0011
0000
0000
1100
0000
1000
0001
0000
0000
,  // measure 9
1001
0000
1000
0001
0000
0001
0100
0000
0100
0001
0000
0001
,  // measure 10
0010
0000
0010
0100
0000
0100
1000
0000
0000
1100
0000
0000
,  // measure 11
1000
0000
1000
0001
0000
0001
0100
0000
0100
1000
0000
1000
,  // measure 12
0100
0001
1000
0100
0000
0000
0012
0000
0000
1003
0000
0000
,  // measure 13
0110
0000
0010
0100
0000
0100
0001
0000
0001
0100
0000
0100
,  // measure 14
0010
0000
0010
1000
0000
1000
0100
0000
0000
0110
0000
0000
,  // measure 15
0100
0000
0100
1000
0000
1000
0001
0000
0001
1000
0000
1000
,  // measure 16
0001
0010
0100
0010
0000
0001
0010
0000
0000
0110
0000
0000
,  // measure 17
2002
0000
0000
0000
,  // measure 18
0000
0000
0000
0000
,  // measure 19
0000
0000
0000
0000
,  // measure 20
0000
0000
0000
0000
,  // measure 21
0000
0000
0000
0000
,  // measure 22
0000
0000
3003
0000
,  // measure 23
2000
0100
0010
0001
3020
0100
0001
1000
,  // measure 24
0230
1000
0001
0010
0302
0010
1000
0100
,  // measure 25
2003
0100
0010
0100
3002
0010
1000
0100
,  // measure 26
0023
1000
0100
0001
0230
1000
0010
0001
,  // measure 27
0310
0000
0100
0000
0000
0100
0000
0000
1000
0100
0000
0010
0100
0000
0000
1000
0000
0000
0001
0000
0000
1000
0000
0000
,  // measure 28
0010
0000
0100
0000
0000
0001
0000
0000
1000
0100
0000
0001
0100
0000
0000
0001
0000
0000
0100
0000
0000
1000
0000
0000
,  // measure 29
0010
0000
0100
0000
0000
0100
0000
0000
0001
0100
0000
0010
0100
0000
0000
0001
0000
0000
1000
0000
0000
0001
0000
0000
,  // measure 30
0010
0000
0100
0000
0000
1000
0000
0000
0001
0100
0000
1000
0100
0000
0000
1000
0000
0000
0100
0000
0000
0001
0000
0000
,  // measure 31
2001
0000
0000
0001
0000
0000
3001
0000
0000
1000
0000
0100
,  // measure 32
0020
0000
0000
0001
0000
0000
0130
0000
0000
0010
0000
0001
,  // measure 33
0200
0000
0000
1000
0000
0000
0301
0000
0000
0100
0000
0010
,  // measure 34
2000
0000
0000
3100
0000
0010
0002
0000
0000
0103
0000
0010
,  // measure 35
2000
0000
0000
0001
0000
0000
3001
0000
0000
1000
0000
0100
,  // measure 36
0020
0001
0130
0010
,  // measure 37
0001
0000
0000
0101
0000
0000
1010
0000
1000
0010
0000
0010
,  // measure 38
0100
0000
0100
0001
0000
0001
1000
0000
0000
0001
0000
0000
,  // measure 39
1100
0000
0000
0110
0000
0000
0011
0000
0000
1100
0000
1000
,  // measure 40
0001
0000
0000
0101
0000
0000
1010
0000
0000
0110
0000
1000
,  // measure 41
0001
0000
0000
1100
0000
0000
0011
0000
0000
0101
0000
0100
,  // measure 42
0010
0000
0000
0101
0000
0010
1000
0000
0000
0110
0000
0001
,  // measure 43
1000
0000
0000
0110
0000
0000
0011
0000
0000
1100
0000
0001
,  // measure 44
0100
0000
0000
1010
0000
0000
0101
0000
0000
0011
0000
0100
,  // measure 45
1000
0000
0000
0101
0000
0000
1100
0000
0000
0011
0000
0100
,  // measure 46
1000
0110
1001
0110
,  // measure 47
2000
0000
0000
0100
0000
0000
3010
0000
0000
0011
0000
0001
,  // measure 48
0200
0000
0000
0010
0000
0000
1300
0000
0000
0101
0000
0010
,  // measure 49
2000
0000
0000
0100
0000
0000
3001
0000
0000
0110
0000
1000
,  // measure 50
0002
0000
0000
0103
0000
0010
2000
0000
0000
3100
0000
0010
,  // measure 51
0002
0000
0000
1000
0000
0000
0100
0000
0000
1003
0000
1000
,  // measure 52
0200
0000
0000
0010
0000
0000
1000
0000
0000
0310
0000
0010
,  // measure 53
0002
0100
1000
0103
,  // measure 54
1001
0110
2002
3003
,  // measure 55
2100
0000
0000
3010
0000
0000
0101
0000
0100
0010
0000
0000
,  // measure 56
0100
0000
0001
0010
0000
0100
2000
0000
0000
3001
0000
0000
,  // measure 57
1100
0000
0000
0110
0000
0000
0012
0000
0013
0001
0000
0000
,  // measure 58
1000
0000
0001
0100
0000
1000
0200
0000
0000
0310
0000
0000
,  // measure 59
2010
0000
0000
3100
0000
0000
0011
0000
0010
0100
0000
0000
,  // measure 60
0010
0000
0001
0100
0000
0010
2000
0000
0000
3001
0000
0000
,  // measure 61
1010
0000
0000
0110
0000
0000
0102
0000
0103
0001
0000
0000
,  // measure 62
2000
0000
3200
0320
0000
0032
0203
0000
0320
2030
0000
3200
,  // measure 63
0310
0000
0000
0011
0000
0000
0110
0000
0100
1000
0000
0000
,  // measure 64
0200
0000
0310
0200
0000
1300
0200
0000
0310
0200
0000
0300
,  // measure 65
0011
0000
0000
1100
0000
0000
1010
0000
0100
0001
0000
0000
,  // measure 66
0200
0000
1300
0200
0000
0301
0200
0000
0310
0200
0000
0300
,  // measure 67
0101
0000
0000
1010
0000
0000
1100
0000
0010
0001
0000
0000
,  // measure 68
2000
0000
3100
0002
0000
0103
2000
0000
3100
0002
0000
0003
,  // measure 69
1100
0000
0000
1010
0000
0000
0101
0000
0100
0001
0000
0002
,  // measure 70
0023
0230
2300
3002
0000
2003
3001
0000
0000
1001
0000
0000
;

//---------------dance-single - xRGTMx----------------
#NOTES:
     dance-single:
     xRGTMx:
     Easy:
     10:
     0.478,0.704,0.597,0.316,0.044: // measure 1
0000
0000
0000
0000
,  // measure 2
0000
0000
0000
0000
,  // measure 3
0000
0000
0000
0000
,  // measure 4
0000
0000
0000
0000
,  // measure 5
1000
0000
1000
0000
,  // measure 6
0001
0100
0001
0000
,  // measure 7
0010
0100
1000
0001
,  // measure 8
1001
0100
1001
0000
,  // measure 9
0010
0010
1000
1000
,  // measure 10
0100
0000
0000
0100
0000
0000
0010
0000
0000
0010
0000
0010
,  // measure 11
0001
0001
0100
0100
,  // measure 12
0010
0000
0100
0010
0000
0000
2001
0000
0000
3001
0000
0000
,  // measure 13
1001
0000
0000
1000
0000
0000
0001
0000
0000
0100
0000
0010
,  // measure 14
0100
0100
1010
0011
,  // measure 15
1000
0100
0011
1100
,  // measure 16
0001
0110
1100
0101
,  // measure 17
2002
0000
0000
0000
,  // measure 18
0000
0000
0000
0000
,  // measure 19
0000
0000
0000
0000
,  // measure 20
0000
0000
0000
0000
,  // measure 21
0000
0000
0000
0000
,  // measure 22
0000
0000
3003
0000
,  // measure 23
1000
0100
0010
0001
1000
0010
0100
0001
,  // measure 24
1000
0100
0010
0100
1000
0010
0100
0010
,  // measure 25
1000
0100
0010
0001
1000
0010
0100
0001
,  // measure 26
1000
0100
0010
0100
1000
0001
0100
0010
,  // measure 27
1000
0001
1100
0010
0100
0001
1010
0100
,  // measure 28
0001
0010
1100
0010
0001
0100
0110
1001
,  // measure 29
0001
0010
1100
0010
0001
0100
1010
0100
,  // measure 30
0001
0010
1100
0010
0001
1100
0011
1100
,  // measure 31
0001
0100
1000
0010
,  // measure 32
0001
0100
1000
0010
,  // measure 33
0001
0010
1000
0100
,  // measure 34
0001
0010
1000
0100
,  // measure 35
0001
0100
1000
0100
,  // measure 36
0001
0010
1000
0010
,  // measure 37
0011
1100
0011
1100
,  // measure 38
0001
1000
2002
3003
,  // measure 39
1000
0101
0110
0101
,  // measure 40
1000
0110
1100
0110
,  // measure 41
1000
0001
0100
0010
,  // measure 42
1001
0100
0110
0100
,  // measure 43
1001
1100
0101
1000
,  // measure 44
0001
1100
0101
1000
,  // measure 45
0110
1000
0110
0001
,  // measure 46
0110
0000
0000
1001
0000
0000
1001
0000
1000
0001
0000
0000
,  // measure 47
2000
0100
3200
0010
,  // measure 48
0320
0001
0032
0100
,  // measure 49
0203
0010
0320
1000
,  // measure 50
2030
0001
3002
1000
,  // measure 51
2003
0100
3002
0100
,  // measure 52
2003
0010
3002
0010
,  // measure 53
2003
3200
0320
0032
,  // measure 54
0103
0110
2002
3003
,  // measure 55
1010
0101
0011
1100
,  // measure 56
0002
0203
0320
1030
,  // measure 57
0011
1100
1010
0101
,  // measure 58
2000
3020
0230
0301
,  // measure 59
1100
0011
0101
1010
,  // measure 60
0002
0023
0230
1300
,  // measure 61
1010
0101
0011
1100
,  // measure 62
2000
3020
0230
0302
,  // measure 63
1003
0100
1000
0100
,  // measure 64
0010
0000
0000
0100
0000
0000
0010
0000
0001
0010
0000
0001
,  // measure 65
0010
0001
0100
0001
,  // measure 66
1000
0000
0000
0001
0000
0000
1000
0000
0010
1000
0000
0010
,  // measure 67
1000
0100
0010
0001
,  // measure 68
0100
0000
0000
0010
0000
0000
1000
0000
0001
1000
0000
0001
,  // measure 69
1000
0100
0010
0001
,  // measure 70
1100
0011
0101
1001
;

//---------------dance-single - xRGTMx----------------
#NOTES:
     dance-single:
     xRGTMx:
     Beginner:
     5:
     0.252,0.429,0.492,0.009,0.000: // measure 1
0000
0000
0000
0000
,  // measure 2
0000
0000
0000
0000
,  // measure 3
0000
0000
0000
0000
,  // measure 4
0000
0000
0000
0000
,  // measure 5
1000
0000
1000
0000
,  // measure 6
0001
0001
0001
0000
,  // measure 7
0100
0000
0100
0000
,  // measure 8
0010
0010
0010
0000
,  // measure 9
1000
0000
1001
0000
,  // measure 10
0001
0000
1001
0000
,  // measure 11
1000
0000
1001
0000
,  // measure 12
0001
0000
1001
0000
,  // measure 13
0100
0000
0110
0000
,  // measure 14
0010
0000
0110
0000
,  // measure 15
0100
0000
0110
0000
,  // measure 16
1001
0000
1001
0000
,  // measure 17
1001
0000
0000
0000
,  // measure 18
0000
0000
0000
0000
,  // measure 19
0000
0000
0000
0000
,  // measure 20
0000
0000
0000
0000
,  // measure 21
0000
0000
0000
0000
,  // measure 22
0000
0000
0000
0000
,  // measure 23
1000
0100
0010
0000
,  // measure 24
0100
0010
0001
0000
,  // measure 25
0001
0100
0010
0000
,  // measure 26
0100
0010
1000
0000
,  // measure 27
1000
1000
0001
0001
,  // measure 28
1000
0000
1001
0000
,  // measure 29
0001
0001
1000
1000
,  // measure 30
0001
0000
1001
0000
,  // measure 31
1000
0000
0000
0000
,  // measure 32
0100
0000
0000
0000
,  // measure 33
0010
0000
0000
0000
,  // measure 34
0001
0000
0000
0000
,  // measure 35
1000
0000
0000
0000
,  // measure 36
0001
0000
0000
0000
,  // measure 37
1000
1000
1000
0000
,  // measure 38
0001
0001
0001
0000
,  // measure 39
1000
0000
1001
0000
,  // measure 40
0001
0000
1001
0000
,  // measure 41
1000
0000
1010
0000
,  // measure 42
0100
0000
0101
0000
,  // measure 43
0001
0000
1001
0000
,  // measure 44
1000
0000
1001
0000
,  // measure 45
0001
0000
0011
0000
,  // measure 46
0100
0000
1100
0000
,  // measure 47
1000
0000
0011
0000
,  // measure 48
1100
0000
1001
0000
,  // measure 49
0001
0000
0101
0000
,  // measure 50
1010
0000
1001
0000
,  // measure 51
1100
0000
0011
0000
,  // measure 52
1100
0000
0011
0000
,  // measure 53
1001
0000
0110
0000
,  // measure 54
0100
0100
0200
0000
,  // measure 55
0310
0010
0010
0000
,  // measure 56
1000
1000
1000
0000
,  // measure 57
1001
1001
1001
0000
,  // measure 58
0110
0110
0110
0000
,  // measure 59
1000
1000
1000
0000
,  // measure 60
0001
0001
0001
0000
,  // measure 61
1100
1100
1100
0000
,  // measure 62
0011
0000
0011
0000
,  // measure 63
1000
1000
1000
0000
,  // measure 64
0001
0001
0001
0000
,  // measure 65
1100
1100
1100
0000
,  // measure 66
0101
0101
0101
0000
,  // measure 67
0100
0100
0100
0000
,  // measure 68
0010
0010
0010
0000
,  // measure 69
0110
0110
0110
0000
,  // measure 70
1001
1001
1001
1001
;
