#TITLE:에너제틱 (Energetic);
#SUBTITLE:;
#ARTIST:Wanna One;
#TITLETRANSLIT:Energetic;
#SUBTITLETRANSLIT:;
#ARTISTTRANSLIT:;
#GENRE:Pop;
#CREDIT:steps by chewi;
#BANNER:Energetic.png;
#BACKGROUND:Energetic-bg.png;
#LYRICSPATH:;
#CDTITLE:cdtitle.png;
#MUSIC:Energetic.ogg;
#OFFSET:-0.033000;
#SAMPLESTART:80.670998;
#SAMPLELENGTH:15.000000;
#SELECTABLE:YES;
#BPMS:0.000000=125.000000
;
#STOPS:
;
#BGCHANGES:;
#KEYSOUNDS:;
#ATTACKS:;

//---------------dance-single - ----------------
#NOTES:
     dance-single:
     :
     Beginner:
     2:
     0.070026,0.101100,0.000000,0.043766,0.000000,56.000000,56.000000,0.000000,5.000000,0.000000,0.000000,0.070026,0.101100,0.000000,0.043766,0.000000,56.000000,56.000000,0.000000,5.000000,0.000000,0.000000:
// measure 0
0000
0000
0000
0000
,  // measure 1
0000
0000
0000
0000
,  // measure 2
0000
0000
0000
0000
,  // measure 3
0000
0000
0000
0000
,  // measure 4
2000
0000
0000
0000
,  // measure 5
3000
0000
0000
0000
,  // measure 6
0002
0000
0000
0000
,  // measure 7
0003
0000
0000
0000
,  // measure 8
1000
0000
0000
0000
,  // measure 9
1000
0000
0000
0000
,  // measure 10
0001
0000
0000
0000
,  // measure 11
0001
0000
0000
0000
,  // measure 12
0100
0000
0000
0000
,  // measure 13
0100
0000
0000
0000
,  // measure 14
0010
0000
0000
0000
,  // measure 15
0010
0000
0000
0000
,  // measure 16
0100
0000
0000
0000
,  // measure 17
0100
0000
0000
0000
,  // measure 18
0010
0000
0000
0000
,  // measure 19
0010
0000
0000
0000
,  // measure 20
1000
0000
0000
0000
,  // measure 21
1000
0000
0000
0000
,  // measure 22
0001
0000
0000
0000
,  // measure 23
0001
0000
0000
0000
,  // measure 24
0001
0000
0000
0000
,  // measure 25
0010
0000
0000
0000
,  // measure 26
0001
0000
0000
0000
,  // measure 27
0010
0000
0000
0000
,  // measure 28
1000
0000
0000
0000
,  // measure 29
0010
0000
0000
0000
,  // measure 30
1000
0000
0000
0000
,  // measure 31
0010
0000
0000
0000
,  // measure 32
0020
0000
0000
0000
,  // measure 33
0030
0000
0000
0000
,  // measure 34
0200
0000
0000
0000
,  // measure 35
0300
0000
0000
0000
,  // measure 36
0010
0000
0010
0000
,  // measure 37
0010
0000
0000
0000
,  // measure 38
0100
0000
0100
0000
,  // measure 39
0100
0000
0000
0000
,  // measure 40
2000
0000
0000
0000
,  // measure 41
3000
0000
0000
0000
,  // measure 42
1000
0000
0000
0000
,  // measure 43
1000
0000
1000
0000
,  // measure 44
0001
0000
0000
0000
,  // measure 45
0001
0000
0001
0000
,  // measure 46
0100
0000
0000
0000
,  // measure 47
0100
0000
0100
0000
,  // measure 48
0010
0000
0000
0000
,  // measure 49
0010
0000
0010
0000
,  // measure 50
1000
0000
0000
0000
,  // measure 51
0100
0000
0000
0000
,  // measure 52
1000
0000
0000
0000
,  // measure 53
0100
0000
0000
0000
,  // measure 54
0001
0000
0000
0000
,  // measure 55
0100
0000
0000
0000
,  // measure 56
0001
0000
0000
0000
,  // measure 57
0100
0000
0000
0100
;

//---------------dance-single - ----------------
#NOTES:
     dance-single:
     :
     Easy:
     4:
     0.167563,0.227476,0.000000,0.026260,0.000000,134.000000,134.000000,0.000000,3.000000,0.000000,0.000000,0.167563,0.227476,0.000000,0.026260,0.000000,134.000000,134.000000,0.000000,3.000000,0.000000,0.000000:
// measure 0
0000
0000
0000
0000
,  // measure 1
0000
0000
0000
0000
,  // measure 2
0000
0000
0000
0000
,  // measure 3
0000
0000
0000
0000
,  // measure 4
2000
0000
0000
0000
,  // measure 5
3100
0000
0000
0000
,  // measure 6
0002
0000
0000
0000
,  // measure 7
0103
0000
0000
0000
,  // measure 8
0000
0100
0000
0100
,  // measure 9
0000
0100
0000
0100
,  // measure 10
0000
0010
0000
0010
,  // measure 11
0000
0010
0000
0010
,  // measure 12
0000
1000
0000
1000
,  // measure 13
0000
1000
0000
1000
,  // measure 14
0000
0001
0000
0001
,  // measure 15
0000
0001
0000
0001
,  // measure 16
1000
0000
0010
0000
,  // measure 17
1000
0010
1000
0000
,  // measure 18
0001
0000
0100
0000
,  // measure 19
0001
0100
0001
0000
,  // measure 20
0100
0100
0000
0010
,  // measure 21
0000
1000
0000
0001
,  // measure 22
0000
0001
0000
0010
,  // measure 23
0000
0100
0000
1000
,  // measure 24
0001
0000
1000
0000
,  // measure 25
0001
1000
0100
0000
,  // measure 26
1000
0000
0001
0000
,  // measure 27
1000
0001
0100
0000
,  // measure 28
0100
0000
0010
0000
,  // measure 29
0100
0010
1000
0000
,  // measure 30
0010
0000
0100
0000
,  // measure 31
0010
0100
0001
0000
,  // measure 32
0001
1000
0000
1000
,  // measure 33
0000
0100
0000
0100
,  // measure 34
0000
0010
0000
0010
,  // measure 35
0000
0001
0000
0001
,  // measure 36
0001
0100
0001
0100
,  // measure 37
0010
1000
0010
1000
,  // measure 38
1000
0001
1000
0001
,  // measure 39
0001
1000
0001
1000
,  // measure 40
2000
0000
0000
0000
,  // measure 41
3000
0000
0000
0000
,  // measure 42
1000
0100
1000
0001
,  // measure 43
1000
0000
0001
0000
,  // measure 44
0001
0100
0001
1000
,  // measure 45
0001
0000
1000
0000
,  // measure 46
0010
1000
0010
1000
,  // measure 47
0100
0000
0100
0000
,  // measure 48
0100
0010
0100
0010
,  // measure 49
0100
0000
0100
0000
,  // measure 50
1000
0001
1000
0000
,  // measure 51
0001
0100
0001
0000
,  // measure 52
0100
0010
0100
0000
,  // measure 53
0010
1000
0010
0000
,  // measure 54
1000
1000
0100
0000
,  // measure 55
0100
0100
0010
0000
,  // measure 56
0010
0010
0001
0000
,  // measure 57
0001
0001
0100
0100
;

//---------------dance-single - ----------------
#NOTES:
     dance-single:
     :
     Medium:
     7:
     0.217581,0.252751,0.035013,0.148806,0.000000,174.000000,170.000000,4.000000,17.000000,0.000000,0.000000,0.217581,0.252751,0.035013,0.148806,0.000000,174.000000,170.000000,4.000000,17.000000,0.000000,0.000000:
// measure 0
0000
0000
0000
0000
,  // measure 1
0000
0000
0000
0000
,  // measure 2
0000
0000
0000
0000
,  // measure 3
0000
0000
0000
0000
,  // measure 4
2000
0000
0000
0000
0000
0010
0000
0000
,  // measure 5
0020
0000
0000
3030
,  // measure 6
0200
0000
0000
0000
0000
0001
0000
0000
,  // measure 7
0002
0000
0000
0303
,  // measure 8
0002
0010
0000
0013
,  // measure 9
2000
0010
0000
3010
,  // measure 10
0020
0100
0000
0130
,  // measure 11
0200
0010
0000
0310
,  // measure 12
0020
1000
0000
1030
,  // measure 13
2000
0001
0000
3001
,  // measure 14
0002
0010
0000
0013
,  // measure 15
0200
1000
0000
1300
,  // measure 16
1000
0010
0100
0000
,  // measure 17
0001
0010
0001
0000
,  // measure 18
0010
0100
1000
0000
,  // measure 19
0100
1000
0100
0000
,  // measure 20
1000
0010
0000
0001
,  // measure 21
0100
1000
0000
0010
,  // measure 22
0001
0100
0000
1000
,  // measure 23
0010
0001
0000
0100
,  // measure 24
1000
0010
1000
0100
,  // measure 25
0010
0001
0100
0001
,  // measure 26
0010
0010
0100
0100
,  // measure 27
1000
0001
0100
0100
,  // measure 28
0010
1000
0010
0100
,  // measure 29
0010
1000
0100
0010
,  // measure 30
0001
0010
0001
0100
,  // measure 31
0001
0010
0100
1000
,  // measure 32
2000
0000
0000
0000
0000
0001
0000
0000
,  // measure 33
0002
0000
0000
3003
,  // measure 34
0200
0000
0000
0000
0000
0010
0000
0000
,  // measure 35
0020
0000
0000
0330
,  // measure 36
0010
0010
1000
1000
,  // measure 37
0100
0100
0001
0001
,  // measure 38
0010
1000
0100
0001
,  // measure 39
0010
1000
0100
0001
,  // measure 40
0020
0000
0000
0000
,  // measure 41
0030
0000
0000
0000
,  // measure 42
0010
0010
0100
0100
,  // measure 43
0010
0000
0100
0000
0010
0100
0010
0000
,  // measure 44
1000
1000
0001
0001
,  // measure 45
1000
0100
0010
0001
,  // measure 46
1000
1000
0001
0001
,  // measure 47
1000
0001
1000
0000
0001
0000
0100
0000
,  // measure 48
0010
1000
0100
0001
,  // measure 49
0010
1000
0010
0000
,  // measure 50
1001
0010
0010
0000
,  // measure 51
1001
0100
0100
0000
,  // measure 52
0001
0010
1000
0010
,  // measure 53
0001
0010
0100
1000
,  // measure 54
1001
0100
0100
0000
,  // measure 55
1001
0010
0010
0000
,  // measure 56
1000
0100
0001
0100
,  // measure 57
1000
0100
0010
0001
;

//---------------dance-single - ----------------
#NOTES:
     dance-single:
     :
     Hard:
     10:
     0.416406,0.455936,0.157559,0.035013,0.061273,333.000000,315.000000,18.000000,4.000000,0.000000,0.000000,0.416406,0.455936,0.157559,0.035013,0.061273,333.000000,315.000000,18.000000,4.000000,0.000000,0.000000:
// measure 0
0000
0000
0000
0000
,  // measure 1
0000
0000
0000
0000
,  // measure 2
0000
0000
0000
0000
,  // measure 3
0000
0000
0000
0000
,  // measure 4
2000
0000
0000
0000
0000
0010
0000
0000
,  // measure 5
0002
0000
0000
3003
,  // measure 6
0002
0000
0000
0000
0000
0010
0000
0000
,  // measure 7
2000
0000
0000
3003
,  // measure 8
1001
0000
0000
0000
0000
0000
0000
0000
0000
0000
0001
0000
0000
1000
0000
0000
,  // measure 9
0100
0000
0000
1000
0000
0000
0100
0000
0000
0000
0010
0000
0000
0100
0000
0000
,  // measure 10
0010
0000
0000
0001
0000
0000
1000
0000
0000
0000
0001
0000
0000
1000
0000
0000
,  // measure 11
0010
0000
0000
0100
0000
0000
0001
0000
0000
0000
1000
0000
0000
0001
0000
0000
,  // measure 12
0010
0000
0000
0100
0000
0000
1000
0000
0000
0000
0001
0000
0000
1000
0000
0000
,  // measure 13
0100
0000
0000
0010
0000
0000
0001
0000
0000
0000
1000
0000
0000
0100
0000
0000
,  // measure 14
0010
0000
0000
0100
0000
0000
1000
0000
0000
0000
0010
0000
0000
0100
0000
0000
,  // measure 15
0001
0000
0000
1000
0000
0000
0100
0000
0000
0000
0000
0000
0000
0000
0000
0000
,  // measure 16
1000
0000
0100
0000
1000
0010
0100
0000
,  // measure 17
0001
0000
0100
0000
0001
0100
0010
0000
,  // measure 18
1000
0000
0001
0000
0010
0100
1000
0000
,  // measure 19
0001
0000
1000
0000
0010
0100
0001
0000
,  // measure 20
1000
0100
1100
0000
0001
0100
0101
0000
,  // measure 21
0100
0010
0110
0000
0010
1000
1010
0000
,  // measure 22
1000
0100
1100
0000
0100
0010
0110
0000
,  // measure 23
0010
0001
0011
0000
0001
0010
0011
0000
,  // measure 24
0001
0010
0001
0010
0100
1000
0010
1000
,  // measure 25
0100
1000
0100
1000
0010
0100
0001
1000
,  // measure 26
0001
1000
0001
1000
0100
0010
0100
1000
,  // measure 27
0001
1000
0001
1000
0001
0100
0010
0100
,  // measure 28
0001
0001
0010
0010
0100
1000
0010
1000
,  // measure 29
0100
0100
0010
0010
0100
1000
0010
0100
,  // measure 30
0001
1000
0001
1000
0100
0010
0100
0010
,  // measure 31
0001
0100
0010
1000
0001
0100
0010
1000
,  // measure 32
0001
0011
0000
1100
,  // measure 33
0000
1001
0000
0110
,  // measure 34
0000
0101
0000
1010
,  // measure 35
0000
1001
0000
0110
,  // measure 36
0010
0001
0010
0100
,  // measure 37
0010
0001
0001
0100
,  // measure 38
0001
0100
0001
0100
0010
1000
0010
1000
,  // measure 39
1000
0100
0010
0001
1000
0100
0010
0001
,  // measure 40
1000
0001
1000
0001
1000
1000
1000
1000
,  // measure 41
1000
0000
0000
1001
,  // measure 42
0001
0100
0010
0000
0100
0001
0010
0000
,  // measure 43
0001
0100
0010
1000
0100
0010
0100
1000
,  // measure 44
0010
0100
0001
0000
0100
0010
1000
0000
,  // measure 45
0001
0010
0100
1000
0100
0010
0001
1000
,  // measure 46
0001
0010
0001
0100
0001
0001
1000
0000
,  // measure 47
1000
0100
1000
0010
1000
1000
0100
0000
,  // measure 48
0010
0100
1000
0001
0100
0010
0100
0001
,  // measure 49
1000
0100
0010
0001
0010
0100
1000
0010
,  // measure 50
1000
1000
0001
1000
0001
0001
1000
0001
,  // measure 51
0100
0100
0010
0100
0010
0010
0100
0010
,  // measure 52
1000
0100
0010
0001
0010
0100
1000
0001
,  // measure 53
1000
0010
0100
0001
0100
0010
1000
0001
,  // measure 54
1000
0001
1000
0001
0010
0100
0010
0100
,  // measure 55
1000
0001
1000
0001
0100
0010
0100
0010
,  // measure 56
1000
0100
0010
0001
1000
0100
0010
0001
,  // measure 57
1000
0010
0100
0001
1000
0010
0100
0001
;
