#TITLE:End of Daylight;
#SUBTITLE:;
#ARTIST:坂上なち;
#TITLETRANSLIT:;
#SUBTITLETRANSLIT:;
#ARTISTTRANSLIT:SAKAUE NACHI;
#GENRE:;
#CREDIT:Chewi☆;
#MENUCOLOR:;
#METERTYPE:DDR X;
#BANNER:End of Daylight.png;
#BACKGROUND:End of Daylight-bg.png;
#LYRICSPATH:;
#CDTITLE:;
#MUSIC:End of Daylight.mp3;
#OFFSET:-0.485;
#SAMPLESTART:92.939;
#SAMPLELENGTH:15.000;
#SELECTABLE:YES;
#LISTSORT:;
#DISPLAYBPM:135.000;
#BPMS:0.000=135.000;
#STOPS:;
#BGCHANGES:;
#ATTACKS:;

//---------------dance-single - Chewi----------------
#NOTES:
     dance-single:
     Chewi:
     Hard:
     11:
     0.518,0.499,0.247,0.077,0.000:
0000
0000
0000
0000
,
0000
0000
0000
0000
,
0000
0000
0000
0000
,
0000
0000
0000
0000
,
2000
0100
3010
0000
0001
0100
0001
0000
,
0002
0100
0013
0000
0010
0100
0010
0000
,
0010
0001
0100
0000
0010
1000
0100
0000
,
1000
0100
1000
0100
0010
0001
0010
0001
,
0002
0100
0013
0000
1000
0100
0010
0100
,
2000
0100
3010
0000
0100
0010
0100
0001
,
0100
0010
1000
0000
0100
0001
0010
0000
,
0100
0010
0100
0010
1000
0010
1000
0010
,
2000
0100
3010
0000
0001
0010
0100
1000
,
0002
0100
0013
0000
1000
0010
0100
0001
,
0100
0010
1000
0100
0001
0010
1000
0000
,
1000
0010
0001
0100
1000
0010
0100
0000
,
0002
0100
0013
0000
1000
0100
0001
0100
,
2000
0100
3010
0000
1000
0010
0001
0010
,
2000
0010
3001
0000
0010
1000
0100
0010
,
0002
0010
0103
1000
0010
0100
0001
0100
,
0101
0100
0010
0100
0001
0000
0001
0010
,
0100
1000
0010
0000
1000
0100
0010
0100
,
1000
0010
0100
0001
0010
0100
0010
0000
,
0001
0001
1000
1000
1001
0000
0000
0000
,
0101
0100
0010
0100
0001
0000
0001
0010
,
0100
1000
0010
0000
1000
0100
0010
0100
,
1000
0010
0100
0001
0100
0000
0010
1000
,
0001
0001
1000
1000
0001
0010
0100
1000
,
1010
0100
1000
0010
0100
0000
0001
0010
,
0100
0010
0001
0000
0100
0010
0100
0001
,
0010
0100
1000
0010
0100
0001
0100
0010
,
1000
1000
0010
0010
0100
0001
0011
0000
,
0011
0010
0100
0010
0001
0000
0100
1000
,
0010
1000
0100
0000
0010
0100
1000
0010
,
1000
1000
0001
0000
0001
0001
1000
0000
,
1100
0000
0011
0100
1010
0000
1001
0000
,
1000
0100
1000
0100
1000
0100
1000
0100
,
0001
0100
0001
0100
0001
0100
0001
0100
,
0001
0010
0001
0010
0001
0010
0001
0010
,
1000
0010
1000
0010
1000
0010
1000
0010
,
1100
0010
0001
0010
,
1100
0010
0001
0100
,
0010
0100
0001
0100
0010
0000
1000
0000
,
1000
0100
0010
0100
1000
0000
0010
0000
,
1100
0010
0101
0010
,
1000
0001
0010
0000
0001
1000
0010
0000
,
1010
0100
0011
0100
,
1000
0100
0001
0000
0001
0100
1000
0000
,
1000
0001
1000
0001
1000
0001
1000
0001
,
0100
0010
0100
0010
0100
0010
0100
0010
,
0100
1000
0100
0000
0010
0001
0100
0000
,
0010
0010
0100
0100
1001
0000
1010
0000
,
0011
0010
0100
1000
0010
0000
1000
0100
,
0001
0100
1000
0000
0001
0001
1000
1000
,
1010
0010
0100
0001
0010
0000
0001
0010
,
1000
0010
0001
0000
0001
0100
1000
0100
,
0011
0010
0100
1000
0010
0000
0100
0001
,
0010
0100
1000
0000
0010
0010
0100
0100
,
0010
1000
0100
0000
0010
1000
0100
0000
,
0010
0001
0100
0000
0010
0001
0100
0000
,
0011
0001
0100
0001
0010
0000
0100
1000
,
0010
1000
0100
0000
0010
0010
0100
0100
,
0011
0001
0100
0001
0010
0000
0100
1000
,
0010
1000
0100
0000
1000
1000
0100
0100
,
1100
0101
1100
0101
,
0011
1010
0011
1001
,
1010
0100
0001
0100
0010
1000
0001
0010
,
0100
0100
0010
0010
0100
0100
1000
1000
,
0001
0000
0000
0000
;

//---------------dance-single - Chewi----------------
#NOTES:
     dance-single:
     Chewi:
     Medium:
     7:
     0.336,0.394,0.062,0.209,0.000:
0000
0000
0000
0000
,
0000
0000
0000
0000
,
0000
0000
0000
0000
,
0000
0000
0000
0000
,
2000
3100
0002
0103
,
2000
3010
0002
0013
,
0010
0010
0010
0010
,
0100
0100
0100
0100
,
0020
0031
0002
0103
,
0200
0310
0020
0130
,
0010
0010
0010
0010
,
1000
1000
1000
1000
,
2000
3010
0002
0013
,
2000
3100
0002
0103
,
0100
0100
0100
0100
,
0010
0010
0010
0010
,
0200
0310
2000
3001
,
0002
1003
0200
0310
,
0010
0100
0010
0110
,
0100
0010
0100
0110
,
0001
0100
1000
0100
,
0001
0100
1000
0100
,
0001
1000
0001
0000
1000
0001
1000
0000
,
0010
0010
0010
0000
,
1000
0010
0001
0010
,
1000
0010
0001
0010
,
1000
0010
0001
0010
,
0001
1000
0001
0000
1000
0001
1000
0000
,
0002
0100
0010
0100
,
1000
1000
0100
0103
,
2000
0100
0010
0100
,
0001
0001
0100
3100
,
0001
0100
0010
0001
,
0100
1000
0010
0100
,
1000
0100
0001
0100
,
1000
0010
0001
0010
,
0100
0100
0100
0100
,
0010
0010
0010
0010
,
0001
0000
0100
0000
0001
1000
0100
0000
,
1000
0000
0100
0000
1000
0001
0100
0000
,
0010
0010
0010
0010
,
0100
0100
0100
0100
,
0010
0000
0010
0000
1000
0001
0010
0000
,
0100
0000
0100
0000
1000
0001
0100
0000
,
0110
0010
0100
0010
,
1000
0100
0010
0001
,
0101
0100
0001
0100
,
0010
0100
0001
1000
,
2000
0001
0001
3001
,
0002
1000
1000
1003
,
0100
0010
0100
0000
0010
0100
0010
0000
,
0110
0110
1001
1001
,
2000
0010
3100
0001
,
0100
0010
0100
0001
,
0002
0010
0103
0010
,
0001
0010
0100
1000
,
0020
0100
1030
0100
,
0010
0001
0100
0010
,
0200
0001
0010
0301
,
0002
0100
0010
1003
,
2000
0100
3010
0001
,
0100
0010
0001
0100
,
0002
0010
0103
0010
,
1000
0100
0010
1000
,
0100
0000
0100
0000
0100
0000
0100
0100
,
0100
0100
0100
0100
,
0010
0100
0010
0100
,
0010
0001
0100
0000
0010
1000
0100
0000
,
0001
0000
0000
0000
;

//---------------dance-single - Chewi----------------
#NOTES:
     dance-single:
     Chewi:
     Easy:
     5:
     0.242,0.263,0.062,0.155,0.000:
0000
0000
0000
0000
,
0000
0000
0000
0000
,
0000
0000
0000
0000
,
0000
0000
0000
0000
,
2000
0000
3020
0000
,
0032
0000
0023
0000
,
2030
0000
0100
0000
,
0010
0000
3100
0000
,
0002
0000
0203
0000
,
2300
0000
3020
0000
,
0032
0000
0010
0000
,
0100
0000
0013
0000
,
0010
0100
0010
0000
,
0100
0010
0100
0000
,
1000
0100
0001
0000
,
0001
0010
1000
0000
,
0010
0100
0010
0000
,
0100
0010
0100
0000
,
0010
1000
0100
0000
,
0001
0010
1000
0000
,
1000
1000
1000
0000
,
1000
1000
1000
0000
,
0010
0010
0010
0000
,
0100
0100
0100
0000
,
0001
0001
0001
0000
,
0001
0001
0001
0000
,
0010
0010
0010
0000
,
0100
0100
0100
0000
,
0020
0000
0032
0000
,
0203
0000
2300
0000
,
3020
0000
0100
0000
,
0100
0000
0130
0000
,
0020
0000
2030
0000
,
3200
0000
0302
0000
,
0023
0000
0100
0000
,
0100
0000
0130
0000
,
1000
0100
1000
0000
,
0100
0001
0100
0000
,
0001
0010
0001
0000
,
0010
1000
0010
0000
,
1000
1000
1000
0000
,
0001
1000
0001
0000
,
0001
0001
0001
0000
,
1000
0001
1000
0000
,
0010
0010
0010
0010
,
0010
0010
0010
0010
,
0100
0100
0100
0100
,
0100
0100
0100
0100
,
1000
1000
1000
1000
,
0001
0001
0001
0001
,
1000
0100
0010
0000
,
0001
0100
0010
0000
,
0110
0000
1001
0000
,
0001
0010
0001
0010
,
0110
0000
1001
0000
,
1000
0100
1000
0100
,
0110
0000
1001
0000
,
0001
0010
0001
0010
,
0110
0000
1001
0000
,
0100
1000
0100
0001
,
0100
0100
0100
0100
,
0010
0100
0001
1000
,
0001
0001
0001
0001
,
1000
0001
0010
0100
,
0010
0010
0010
0010
,
0100
0100
0100
0100
,
0010
0001
0100
0010
,
0001
0100
1000
0010
,
0100
0000
0000
0000
;

//---------------dance-single - Chewi----------------
#NOTES:
     dance-single:
     Chewi:
     Beginner:
     3:
     0.160,0.210,0.015,0.062,0.000:
0000
0000
0000
0000
,
0000
0000
0000
0000
,
0000
0000
0000
0000
,
0000
0000
0000
0000
,
2000
0000
0000
3000
,
1000
1000
1000
0000
,
0002
0000
0000
0003
,
0001
0001
0001
0000
,
0200
0000
0000
0300
,
0100
0100
0100
0000
,
0020
0000
0000
0030
,
0010
0010
0010
0000
,
1000
0000
0100
0000
,
1000
0000
0100
0000
,
0001
0000
0100
0000
,
0001
0000
0100
0000
,
0001
0000
1000
0000
,
0001
0000
1000
0000
,
0010
0000
0100
0000
,
0010
0000
0100
0000
,
0010
0010
0010
0000
,
0010
0000
0100
0000
,
0100
0100
0100
0000
,
0100
0000
0010
0000
,
1000
1000
1000
0000
,
1000
0000
0001
0000
,
0001
0001
0001
0000
,
0001
0000
1000
0000
,
1000
0000
0100
0000
,
0001
0000
0001
0000
,
0001
0000
0100
0000
,
1000
0000
1000
0000
,
1000
0000
0010
0000
,
0100
0000
0001
0000
,
1000
0000
0100
0000
,
0010
0000
0001
0000
,
0002
0000
0000
0003
,
0001
0000
0000
0000
,
2000
0000
0000
3000
,
1000
0000
0000
0000
,
0020
0000
0000
0030
,
0010
0000
0000
0000
,
0200
0000
0000
0300
,
0100
0000
0000
0000
,
0100
0100
0100
0000
,
0100
0100
0100
0000
,
0010
0010
0010
0000
,
0010
0010
0010
0000
,
1000
1000
1000
0000
,
0001
0001
0001
0000
,
1000
1000
1000
0000
,
0001
0001
0001
0000
,
1000
0000
0100
0000
,
0010
0000
1000
0000
,
0100
0000
0001
0000
,
0010
0000
0100
0000
,
0001
0000
1000
0000
,
0010
0000
0100
0000
,
0100
0000
0010
0000
,
1000
0000
0001
0000
,
1000
0000
0100
0000
,
0010
0000
0001
0000
,
0001
0000
0100
0000
,
0010
0000
1000
0000
,
1000
0000
0001
0000
,
0001
1000
0001
0000
,
1001
0000
0001
0000
,
0001
1000
0001
0000
,
1001
0000
0000
0000
;
