#TITLE:Empire State Of Mind;
#SUBTITLE:;
#ARTIST:Jay-Z feat. Alicia Keys;
#TITLETRANSLIT:;
#SUBTITLETRANSLIT:;
#ARTISTTRANSLIT:;
#GENRE:;
#CREDIT:Chewi☆;
#MENUCOLOR:#FFFF00;
#METERTYPE:DDR X;
#BANNER:Empire State Of Mind.png;
#BACKGROUND:Empire State Of Mind-bg.png;
#LYRICSPATH:;
#CDTITLE:./CDTITLES/DanceDanceRevolution skyMIX2 -FREEDOM-.png;
#MUSIC:Empire State Of Mind.mp3;
#OFFSET:-0.102;
#SAMPLESTART:55.184;
#SAMPLELENGTH:15.000;
#SELECTABLE:YES;
#LISTSORT:;
#DISPLAYBPM:87.000;
#BPMS:0.000=86.650;
#STOPS:;
#BGCHANGES:8.000=Empire State of Mind.avi=1.000=1=0=1,
128.000=Empire State Of Mind-bg.png=1.000=1=0=1,
99999=-nosongbg-=1.000=0=0=0 // don't automatically add -songbackground-
;
#ATTACKS:;

//---------------dance-single - Chewi----------------
#NOTES:
     dance-single:
     Chewi:
     Beginner:
     1:
     0.087,0.101,0.023,0.045,0.000: // measure 1
0000
0000
0000
0000
,  // measure 2
0000
0000
0000
0000
,  // measure 3
0000
0000
0000
0000
,  // measure 4
0000
0000
0000
0000
,  // measure 5
0100
0000
0100
0000
,  // measure 6
0010
0000
0010
0000
,  // measure 7
1000
0000
1000
0000
,  // measure 8
0001
0000
0001
0000
,  // measure 9
0010
0000
0010
0000
,  // measure 10
1000
0000
1000
0000
,  // measure 11
0100
0000
0100
0000
,  // measure 12
0001
0000
0001
0000
,  // measure 13
0001
0000
1000
0000
,  // measure 14
0010
0000
0100
0000
,  // measure 15
1000
0000
0001
0000
,  // measure 16
0010
0000
0100
0000
,  // measure 17
0100
0000
0010
0000
,  // measure 18
0001
0000
0010
0000
,  // measure 19
0100
0000
0010
0000
,  // measure 20
1000
0000
0010
0000
,  // measure 21
2000
0000
0000
3000
,  // measure 22
1000
0000
1000
0000
,  // measure 23
0002
0000
0000
0003
,  // measure 24
0001
0000
0001
0000
,  // measure 25
0200
0000
0000
0300
,  // measure 26
0100
0000
0100
0000
,  // measure 27
0020
0000
0000
0030
,  // measure 28
0010
0000
0010
0000
,  // measure 29
1001
0000
0000
0000
,  // measure 30
0110
0000
0000
0001
,  // measure 31
1000
0000
0000
0000
;

//---------------dance-single - Chewi----------------
#NOTES:
     dance-single:
     Chewi:
     Easy:
     2:
     0.119,0.175,0.034,0.090,0.000:
0000
0000
0000
0000
,
0000
0000
0000
0000
,
0000
0000
0000
0000
,
0000
0000
0000
0000
,
1000
0000
1000
0000
,
0001
0000
0001
0000
,
0100
0000
0100
0000
,
0010
0000
0010
0000
,
0010
0000
1000
0000
,
0100
0000
0001
0000
,
0010
0000
0001
0000
,
0100
0000
1000
0000
,
0001
1000
0001
0000
,
1000
0001
1000
0000
,
0100
0010
0100
0000
,
0010
0100
0010
0000
,
0010
1000
0010
0000
,
0010
0001
0010
0000
,
0100
0001
0100
1000
,
0100
1000
0010
0001
,
2002
0000
0000
3003
,
0001
0000
1000
0001
,
1000
0000
0010
0000
,
0001
0000
0001
0100
,
2002
0000
0000
3003
,
1000
0000
0001
0000
,
0010
1000
0100
0001
,
0010
0000
0010
0000
,
0220
0000
0000
0330
,
0002
0000
0000
0003
,
2000
0000
0000
0000
,
3000
0000
0000
0000
;

//---------------dance-single - Chewi----------------
#NOTES:
     dance-single:
     Chewi:
     Medium:
     5:
     0.208,0.227,0.090,0.056,0.000:
0000
0000
0000
0000
,
0000
0000
0000
0000
,
0000
0000
0000
0000
,
0000
0000
0000
0000
,
1000
1000
1000
0000
0100
0000
0010
0000
,
0001
0001
0001
0000
0010
0000
0100
0000
,
0100
1001
0010
1001
,
1000
0100
0001
0010
,
0010
0010
0010
0000
0100
0000
0010
0000
,
0001
0001
0001
0000
1000
0000
0001
0000
,
0100
0100
0100
0000
0010
0000
0100
0000
,
0001
0001
0001
0000
1000
0000
0001
0000
,
0010
1001
0100
1001
,
0010
1000
0100
0001
,
0001
1000
0001
0000
1000
0000
0100
0000
,
1000
0001
1000
0000
0001
0000
0100
0000
,
0010
0101
0010
1100
,
1000
0001
0010
1000
,
0001
1000
0100
0001
,
0010
0000
0100
0000
0010
0000
0100
0100
,
0200
2000
0000
3300
,
1000
0000
0010
0000
0001
0000
0100
0100
,
0100
0000
0010
0001
,
1000
1000
1000
0000
0010
0000
0001
0000
,
0200
0002
0000
0303
,
0001
0010
1000
0100
,
0010
0010
0010
0000
0100
0100
0100
0000
,
1000
0101
0001
1100
,
1000
0001
1000
0000
0001
0000
0100
0000
,
1000
0001
1000
0000
1000
0000
0100
0100
,
0200
0000
0000
0000
,
0300
0000
0000
0000
;

//---------------dance-single - Chewi----------------
#NOTES:
     dance-single:
     Chewi:
     Hard:
     7:
     0.312,0.297,0.045,0.158,0.000:
0000
0000
0000
0000
,
0000
0000
0000
0000
,
0000
0000
0000
0000
,
0000
0000
0000
0000
,
1000
0100
1000
0010
1000
0100
0001
0010
,
0100
0001
0010
0001
0100
0001
0010
1000
,
0100
0010
1000
0100
0010
0001
0100
0010
,
0001
0100
0010
0001
1000
0010
0100
0001
,
0100
0010
1000
0001
0010
0100
1000
0001
,
1000
0100
0001
0010
0100
0001
0010
0010
,
0001
0010
0100
1000
0001
0010
0100
1000
,
0010
0100
0001
0100
0010
1000
0001
1000
,
0100
0001
1000
0100
0001
0010
0100
1000
,
0010
0100
0001
1000
0100
0010
0001
1000
,
0010
0100
0001
0100
0010
1000
0100
0010
,
0100
1000
0010
1000
0100
1000
0001
1000
,
0001
0100
0010
1000
0001
0100
0010
1000
,
0001
0010
0100
1000
0001
0010
1000
0100
,
0001
1000
0100
1000
0001
0010
0100
1000
,
0001
0010
0001
1000
0010
0100
0001
2010
,
0000
0002
0000
0000
0000
0000
3003
0000
,
0001
0010
0100
1000
0010
0001
0100
0020
,
0000
0032
0000
0103
0010
0001
1000
0020
,
0000
0230
0000
0300
0010
0100
0001
2000
,
0000
0002
0000
0000
0000
0000
3003
0000
,
0000
0001
0010
0100
1000
0100
0010
0002
,
0000
2003
0000
3001
0100
1000
0100
0001
,
0010
0100
1000
0000
1000
0100
0010
0001
,
0000
0101
0000
1000
0000
1100
0000
0002
,
0000
1000
2000
0000
0000
0000
3003
0000
,
2002
0000
0000
0000
,
3003
0000
0000
0000
;
