#TITLE:electrorgasm;
#SUBTITLE:;
#ARTIST:Sota Fujimori;
#TITLETRANSLIT:;
#SUBTITLETRANSLIT:;
#ARTISTTRANSLIT:;
#GENRE:;
#CREDIT:xRGTMx;
#MENUCOLOR:;
#METERTYPE:DDR;
#BANNER:electrorgasm.png;
#BACKGROUND:electrorgasm-bg.png;
#LYRICSPATH:;
#CDTITLE:;
#MUSIC:electrorgasm.mp3;
#OFFSET:-0.116;
#SAMPLESTART:14.314;
#SAMPLELENGTH:15.000;
#SELECTABLE:YES;
#LISTSORT:;
#BPMS:0.000=135.000;
#STOPS:;
#BGCHANGES:;
#ATTACKS:;

//---------------dance-single - xRGTMx----------------
#NOTES:
     dance-single:
     xRGTMx:
     Hard:
     10:
     0.443,0.519,0.334,0.130,0.085: // measure 1
0000
0000
0000
0000
,  // measure 2
0000
0000
0000
0000
,  // measure 3
0000
0000
0000
0000
,  // measure 4
0000
0000
0000
0000
,  // measure 5
1000
0100
0000
0000
0010
0000
0000
0000
0100
0000
0000
0000
1001
0000
0000
0000
,  // measure 6
1000
0000
0001
0000
1000
0000
0000
0000
0010
1000
0000
0000
0001
0000
0010
0000
,  // measure 7
0100
1000
0000
0010
0000
0000
0100
0000
0001
0000
0000
0000
1001
0000
0000
0000
,  // measure 8
1000
0100
0001
1000
0010
0001
1000
0000
,  // measure 9
0001
0000
0000
0000
1000
0000
0010
0000
0100
0000
0000
0001
0000
0000
1000
0000
,  // measure 10
0000
0000
1000
0000
0001
0000
0010
0000
0100
0000
0000
0010
0000
0000
0001
0000
,  // measure 11
1000
0000
0000
0000
0001
0000
0100
0000
1000
0000
0000
0010
0000
0000
0001
0000
,  // measure 12
0000
0000
0001
0000
0010
0000
1000
0000
0100
0000
0000
0001
0000
0000
0000
0000
,  // measure 13
1001
0000
0000
0000
1000
0000
0001
0000
1000
0000
0000
0010
0000
0000
2001
0000
,  // measure 14
0000
0000
0001
0000
3001
0000
1000
0000
0010
0000
0000
0001
0000
0000
0100
0000
,  // measure 15
1000
0000
0000
0000
0100
0000
0010
0000
1000
0000
0000
0010
0000
0000
0001
0000
,  // measure 16
0000
1000
0100
0001
0100
1000
0010
0001
,  // measure 17
0010
1010
1000
1100
,  // measure 18
0100
0101
0001
0011
,  // measure 19
1010
1100
0101
0011
,  // measure 20
0101
1100
1010
0011
,  // measure 21
1000
0100
0001
0010
1000
0000
1001
0000
,  // measure 22
1000
0010
0001
0100
1000
0000
1001
0000
,  // measure 23
1000
0100
0001
0000
0001
0010
1000
0000
,  // measure 24
1000
0010
0001
0100
1000
0001
1000
0000
,  // measure 25
2010
0000
0010
0000
3100
2000
0100
0000
,  // measure 26
0010
0000
0010
0000
3100
1000
0100
0000
,  // measure 27
0012
0000
0010
0000
0103
0002
0100
0000
,  // measure 28
0013
0002
0023
0001
0032
1000
1003
0000
,  // measure 29
0120
0000
1000
0000
0031
0020
1000
0000
,  // measure 30
0100
0000
1000
0000
1030
0020
0031
0000
,  // measure 31
0021
0000
1030
0010
1000
0001
1000
0000
,  // measure 32
0110
0000
0000
1001
0000
0000
1001
0000
0000
1000
0100
0001
,  // measure 33
0020
2000
0000
0000
,  // measure 34
0000
0000
0000
0000
,  // measure 35
0000
0000
3030
0000
,  // measure 36
0000
0000
0000
0000
,  // measure 37
1000
0000
0000
0000
0001
0000
0000
0000
0000
0001
1000
0000
0000
0000
0000
0000
,  // measure 38
0001
1000
0001
1000
0000
0010
0000
0010
0000
0000
1000
0000
0000
0100
1000
0100
,  // measure 39
1000
0000
0000
0000
0020
0000
0000
0000
0030
0100
0001
0000
0000
0000
2000
0000
,  // measure 40
3000
0001
0010
0100
1000
0010
0100
0001
,  // measure 41
1000
0000
0010
0000
0100
0001
1000
0000
,  // measure 42
0100
0000
0010
0001
0100
0010
1000
0000
,  // measure 43
0001
0000
0010
0000
0100
1000
0001
0000
,  // measure 44
0100
0000
0010
1000
0100
0001
0100
0000
,  // measure 45
1000
0000
0010
0100
1000
0010
1000
0000
,  // measure 46
0100
0000
0001
0010
0100
0001
0100
0000
,  // measure 47
1000
0000
0001
0100
1000
0001
1000
0000
,  // measure 48
0001
0000
1000
0100
0001
1000
0001
0000
,  // measure 49
1000
0100
0010
1000
0010
0100
1000
0000
,  // measure 50
0001
0100
0010
0001
0010
0100
0001
0000
,  // measure 51
1000
0100
0001
1000
0010
0001
1000
0000
,  // measure 52
0001
0100
1000
0001
0010
1000
0001
0000
,  // measure 53
1000
0100
0010
0000
0001
0010
0100
0000
,  // measure 54
1000
0010
0100
0000
0001
0100
0010
0000
,  // measure 55
1000
0010
0100
0001
0010
0100
1000
0001
,  // measure 56
0010
1000
0001
0100
1000
0001
0100
0010
,  // measure 57
1000
0100
0011
1100
,  // measure 58
0001
1010
0101
1010
,  // measure 59
0001
0010
1100
0101
,  // measure 60
1000
0110
1001
0110
,  // measure 61
1000
0000
0011
0000
1000
0100
0001
0000
,  // measure 62
1000
0000
0101
0000
1000
0010
0001
0000
,  // measure 63
1000
0010
0100
0001
1000
0000
0001
0000
,  // measure 64
0110
1001
0110
1001
;

//---------------dance-single - xRGTMx----------------
#NOTES:
     dance-single:
     xRGTMx:
     Medium:
     7:
     0.274,0.389,0.187,0.081,0.000: // measure 1
0000
0000
0000
0000
,  // measure 2
0000
0000
0000
0000
,  // measure 3
0000
0000
0000
0000
,  // measure 4
0000
0000
0000
0000
,  // measure 5
1000
0001
1100
0000
,  // measure 6
0001
1000
0101
0000
,  // measure 7
1000
0011
1100
0000
,  // measure 8
0010
0100
0010
0000
2001
0000
3100
0000
,  // measure 9
1000
0010
0001
0000
,  // measure 10
0001
0010
1000
0000
,  // measure 11
1000
0100
0001
0000
,  // measure 12
0001
0100
1000
0000
,  // measure 13
1000
0010
0001
1000
,  // measure 14
0001
0010
1000
0000
,  // measure 15
0001
0010
1000
0001
,  // measure 16
1000
0000
0010
0000
0001
1000
0001
0000
,  // measure 17
1000
0100
0010
1000
,  // measure 18
0010
0100
1000
1000
,  // measure 19
0001
0100
0010
0001
,  // measure 20
0010
0100
0001
0001
,  // measure 21
1000
0100
0010
1000
,  // measure 22
0001
0100
1000
1000
,  // measure 23
0001
0100
0010
0001
,  // measure 24
1000
0100
0001
0001
,  // measure 25
1002
2003
0001
3002
,  // measure 26
0100
0100
0103
0200
,  // measure 27
0010
0010
1000
1000
,  // measure 28
0302
1000
1000
1000
,  // measure 29
1003
1100
0110
0011
,  // measure 30
0001
0011
0110
1100
,  // measure 31
1000
1010
0101
1010
,  // measure 32
1000
0001
0100
0010
,  // measure 33
2002
0000
0000
0000
,  // measure 34
0000
0000
0000
0000
,  // measure 35
3003
0000
0000
0000
,  // measure 36
0000
0000
0000
0000
,  // measure 37
1000
0000
1000
0000
,  // measure 38
0001
0000
0001
0000
,  // measure 39
0100
0000
0100
0000
,  // measure 40
0010
0000
1001
0000
,  // measure 41
1000
0100
0010
1000
,  // measure 42
0010
0100
1000
0010
,  // measure 43
0100
0001
0010
0100
,  // measure 44
0001
0100
0010
0001
,  // measure 45
1000
0010
0001
1000
,  // measure 46
0100
0001
1000
0010
,  // measure 47
0001
1000
0100
0001
,  // measure 48
1000
0010
0100
0001
,  // measure 49
1000
0010
0100
1000
,  // measure 50
0100
0010
1000
0100
,  // measure 51
0010
0001
0100
0010
,  // measure 52
0001
0010
0100
0001
,  // measure 53
1000
0100
0001
1000
,  // measure 54
0010
0001
1000
0100
,  // measure 55
0001
1000
0010
0001
,  // measure 56
1000
0100
0010
0001
,  // measure 57
2000
0000
3001
0000
,  // measure 58
0002
0000
1003
0000
,  // measure 59
1000
1000
0001
0001
,  // measure 60
1001
0000
0110
0000
,  // measure 61
0001
0001
1000
0000
,  // measure 62
1000
1000
0001
0000
,  // measure 63
1000
0100
0010
0001
,  // measure 64
1001
0110
1001
0110
;

//---------------dance-single - xRGTMx----------------
#NOTES:
     dance-single:
     xRGTMx:
     Easy:
     5:
     0.195,0.259,0.147,0.000,0.000: // measure 1
0000
0000
0000
0000
,  // measure 2
0000
0000
0000
0000
,  // measure 3
0000
0000
0000
0000
,  // measure 4
0000
0000
0000
0000
,  // measure 5
1000
0000
1100
0000
,  // measure 6
0001
0000
0101
0000
,  // measure 7
1000
0000
0110
0000
,  // measure 8
1001
1001
1001
0000
,  // measure 9
1000
1000
0100
0000
,  // measure 10
0100
0100
0001
0000
,  // measure 11
0001
0001
1000
0000
,  // measure 12
1000
1000
0001
0000
,  // measure 13
0001
0001
0100
0000
,  // measure 14
0100
0100
1000
0000
,  // measure 15
1000
1000
0001
0000
,  // measure 16
0001
0001
1000
0000
,  // measure 17
1000
1000
0010
0000
,  // measure 18
0010
0010
0001
0000
,  // measure 19
0001
0001
1000
0000
,  // measure 20
1000
1000
0001
0000
,  // measure 21
0001
0001
0010
0000
,  // measure 22
0010
0010
1000
0000
,  // measure 23
1000
1000
0001
0000
,  // measure 24
0001
0001
1000
0000
,  // measure 25
1001
0000
0000
0000
,  // measure 26
0100
0000
0010
0000
,  // measure 27
1001
0000
0000
0000
,  // measure 28
1000
0100
0001
0100
,  // measure 29
1001
0000
0010
0000
,  // measure 30
1001
0000
0100
0000
,  // measure 31
0110
0000
1000
0000
,  // measure 32
0110
0000
0001
1000
,  // measure 33
1001
0000
0000
0000
,  // measure 34
0000
0000
0000
0000
,  // measure 35
0000
0000
0000
0000
,  // measure 36
0000
0000
0000
0000
,  // measure 37
1000
0000
0000
0000
,  // measure 38
1000
0000
0000
0000
,  // measure 39
0001
0000
0000
0000
,  // measure 40
0001
0000
0000
0000
,  // measure 41
1000
1000
0000
0100
,  // measure 42
0010
0010
0000
0001
,  // measure 43
1000
1000
0000
0010
,  // measure 44
0100
0100
0001
0000
,  // measure 45
1000
1000
0000
0100
,  // measure 46
0010
0010
0000
0100
,  // measure 47
1000
1000
0000
0001
,  // measure 48
0100
0100
1001
0000
,  // measure 49
0001
0100
0010
0000
,  // measure 50
0100
0010
1000
0000
,  // measure 51
0010
1000
0100
0000
,  // measure 52
0010
0001
0100
0000
,  // measure 53
0001
1000
0100
0000
,  // measure 54
1000
0001
0010
0000
,  // measure 55
0100
0010
0001
0000
,  // measure 56
0100
0010
1000
0000
,  // measure 57
1001
0000
1000
0000
,  // measure 58
0001
1000
0001
0000
,  // measure 59
0100
0010
0100
0000
,  // measure 60
0010
0100
0010
0000
,  // measure 61
1001
0000
0001
0000
,  // measure 62
1000
0100
0001
0000
,  // measure 63
0001
0100
1000
0000
,  // measure 64
0010
0100
1001
1001
;

//---------------dance-single - xRGTMx----------------
#NOTES:
     dance-single:
     xRGTMx:
     Beginner:
     3:
     0.170,0.181,0.122,0.041,0.000: // measure 1
0000
0000
0000
0000
,  // measure 2
0000
0000
0000
0000
,  // measure 3
0000
0000
0000
0000
,  // measure 4
0000
0000
0000
0000
,  // measure 5
1000
1000
0000
0000
,  // measure 6
1000
1000
0000
0000
,  // measure 7
0001
0001
0000
0000
,  // measure 8
0001
0001
0000
0000
,  // measure 9
1000
0000
0010
0000
,  // measure 10
0001
0000
0010
0000
,  // measure 11
1000
0000
0100
0000
,  // measure 12
0001
0000
0100
0000
,  // measure 13
1000
0000
0010
0000
,  // measure 14
0001
0000
1000
0000
,  // measure 15
0100
0000
0001
0000
,  // measure 16
1000
0000
0001
0000
,  // measure 17
1000
1000
1000
0000
,  // measure 18
0100
0100
0100
0000
,  // measure 19
1000
0000
1001
0000
,  // measure 20
1000
0000
1001
0000
,  // measure 21
0001
0001
0001
0000
,  // measure 22
0100
0100
0100
0000
,  // measure 23
0001
0000
1001
0000
,  // measure 24
0001
0000
1001
0000
,  // measure 25
2000
0000
3000
0000
,  // measure 26
1000
0000
1000
0000
,  // measure 27
0002
0000
0003
0000
,  // measure 28
0001
0000
0001
0000
,  // measure 29
2000
0000
3000
0000
,  // measure 30
1000
0000
1000
0000
,  // measure 31
0002
0000
0003
0000
,  // measure 32
0001
0000
0001
0000
,  // measure 33
2000
0000
0000
0000
,  // measure 34
3000
0000
0000
0000
,  // measure 35
0000
0000
0000
0000
,  // measure 36
0000
0000
0000
0000
,  // measure 37
0010
0000
0000
0000
,  // measure 38
0010
0000
0000
0000
,  // measure 39
0110
0000
0000
0000
,  // measure 40
1001
0000
1001
0000
,  // measure 41
1000
1000
1000
0000
,  // measure 42
0100
0100
0100
0000
,  // measure 43
0001
0001
0001
0000
,  // measure 44
0100
0100
0100
0000
,  // measure 45
1000
1000
1000
0000
,  // measure 46
0010
0010
0010
0000
,  // measure 47
0001
0001
0001
0000
,  // measure 48
0010
0010
0010
0000
,  // measure 49
1000
0000
1100
0000
,  // measure 50
0100
0000
0101
0000
,  // measure 51
0001
0000
0011
0000
,  // measure 52
0010
0000
1010
0000
,  // measure 53
1000
0000
1100
0000
,  // measure 54
0100
0000
0101
0000
,  // measure 55
0001
0000
0011
0000
,  // measure 56
0010
0000
1010
0000
,  // measure 57
1000
1000
1000
0000
,  // measure 58
1000
1000
1000
0000
,  // measure 59
0001
0001
0001
0000
,  // measure 60
0001
0001
0001
0000
,  // measure 61
0100
0100
0100
0000
,  // measure 62
0100
0100
0100
0000
,  // measure 63
0010
0010
0010
0000
,  // measure 64
0010
0010
0010
0000
;
