#TITLE:Electric light Moon light;
#SUBTITLE:;
#ARTIST:capsule;
#TITLETRANSLIT:;
#SUBTITLETRANSLIT:;
#ARTISTTRANSLIT:;
#GENRE:;
#CREDIT:yamamoto_;
#MENUCOLOR:;
#METERTYPE:DDR X;
#BANNER:Electric light Moon light.png;
#BACKGROUND:Electric light Moon light-bg.png;
#LYRICSPATH:;
#CDTITLE:;
#MUSIC:Electric light Moon light.mp3;
#OFFSET:-0.206;
#SAMPLESTART:19.583;
#SAMPLELENGTH:15.000;
#SELECTABLE:YES;
#LISTSORT:;
#DISPLAYBPM:96.000;
#BPMS:0.000=96.000;
#STOPS:27.000=2.500
;
#BGCHANGES:;
#ATTACKS:;

//---------------dance-single - yamamoto_----------------
#NOTES:
     dance-single:
     yamamoto_:
     Hard:
     8:
     0.251,0.247,0.111,0.099,0.000:
0000
0000
0000
0000
,
0000
0000
0000
0000
,
0000
0000
0000
0000
,
0000
0000
0000
0000
,
1000
0001
0010
0000
0200
0000
0310
0000
,
0001
1000
0010
0000
0200
0000
0310
0000
,
0010
1000
0100
0001
,
0010
0010
0010
0000
1000
0000
1000
0000
,
0001
1000
0100
0000
0010
0000
0000
0000
,
0100
0100
0100
0000
0010
0000
0001
0000
,
1000
0100
1000
0000
0001
0000
0000
0000
,
1000
0010
0001
0000
0010
0000
1000
0000
,
1000
0100
0001
0000
0100
0000
0000
0000
,
0100
0010
0001
0000
0100
0000
0010
0000
,
0100
1000
0010
0000
1000
0000
0000
0000
,
1000
0100
0001
0100
1000
0000
0100
0000
,
0001
0101
1000
1010
,
1000
0010
0001
0010
1000
0000
0010
0000
,
0001
0101
1000
1100
,
1000
0100
0010
0100
1000
0000
0010
0000
,
0100
0101
0001
0011
,
0001
0010
0100
1000
0010
0000
1000
0000
,
0100
0110
0010
0110
,
0020
0001
0100
0031
,
0001
0100
0001
0000
1000
0100
1000
0000
,
0200
0010
1000
0310
,
0001
0100
0001
0000
0100
0001
0100
0000
,
0002
1000
0010
1003
,
1000
1000
1000
0000
0100
0100
0100
0000
,
2000
0100
0010
3001
,
2002
0000
0000
3003
;

//---------------dance-single - yamamoto_----------------
#NOTES:
     dance-single:
     yamamoto_:
     Medium:
     5:
     0.157,0.209,0.000,0.124,0.000:
0000
0000
0000
0000
,
0000
0000
0000
0000
,
0000
0000
0000
0000
,
0000
0000
0000
0000
,
2000
0100
0100
3100
,
0002
0100
0100
0103
,
1000
0010
0100
0001
,
1000
0100
0001
0010
,
1000
0100
0010
0000
,
0100
1000
0010
0001
,
0100
0010
0001
0000
,
0001
1000
0010
0100
,
0001
1000
0100
0000
,
1000
0100
0010
0100
,
1000
0001
0100
0000
,
0100
0010
1000
0001
,
0010
1000
0100
0000
,
0001
0010
0100
0001
,
0010
1000
0100
0000
,
0010
0100
1000
0001
,
0100
0010
1000
0000
,
1000
0001
0010
0100
,
1000
0100
0001
0000
,
0200
0020
0000
0000
,
0000
0000
0330
0001
,
2000
0002
0000
0000
,
0000
0000
3003
1000
,
0020
0002
0000
0000
,
0000
0000
0033
0001
,
0200
2000
0000
0000
,
0000
0000
0000
3300
;

//---------------dance-single - yamamoto_----------------
#NOTES:
     dance-single:
     yamamoto_:
     Beginner:
     1:
     0.055,0.057,0.000,0.049,0.000: // measure 1
0000
0000
0000
0000
,  // measure 2
0000
0000
0000
0000
,  // measure 3
0000
0000
0000
0000
,  // measure 4
0000
0000
0000
0000
,  // measure 5
1000
0000
0000
0000
,  // measure 6
0001
0000
0000
0000
,  // measure 7
0100
0000
0000
0000
,  // measure 8
0010
0000
0000
0000
,  // measure 9
1000
0000
0000
0000
,  // measure 10
0100
0000
0000
0000
,  // measure 11
0100
0000
0000
0000
,  // measure 12
1000
0000
0000
0000
,  // measure 13
0010
0000
0000
0000
,  // measure 14
0001
0000
0000
0000
,  // measure 15
0100
0000
0000
0000
,  // measure 16
1000
0000
0000
0000
,  // measure 17
0001
0000
0000
0000
,  // measure 18
0100
0000
0000
0000
,  // measure 19
0010
0000
0000
0000
,  // measure 20
1000
0000
0000
0000
,  // measure 21
0001
0000
0000
0000
,  // measure 22
0100
0000
0000
0000
,  // measure 23
1000
0000
0000
0000
,  // measure 24
0001
0002
0000
0000
,  // measure 25
0000
0000
0000
0003
,  // measure 26
1000
2000
0000
0000
,  // measure 27
0000
0000
0000
3000
,  // measure 28
0100
0200
0000
0000
,  // measure 29
0000
0000
0000
0300
,  // measure 30
0010
0020
0000
0000
,  // measure 31
0000
0000
0000
0030
;

//---------------dance-single - yamamoto_----------------
#NOTES:
     dance-single:
     yamamoto_:
     Easy:
     3:
     0.145,0.171,0.000,0.235,0.000: // measure 1
0000
0000
0000
0000
,  // measure 2
0000
0000
0000
0000
,  // measure 3
0000
0000
0000
0000
,  // measure 4
0000
0000
0000
0000
,  // measure 5
2000
0000
0000
3000
,  // measure 6
0002
0000
0000
0003
,  // measure 7
0200
0000
0000
0300
,  // measure 8
0010
1000
0002
0003
,  // measure 9
1000
0100
2000
3000
,  // measure 10
0100
0010
0001
0010
,  // measure 11
0100
1000
1000
0000
,  // measure 12
1000
0001
0200
0300
,  // measure 13
0010
0100
0002
0003
,  // measure 14
0001
1000
0100
1000
,  // measure 15
0100
0010
0001
0000
,  // measure 16
1000
0100
0020
0030
,  // measure 17
0001
0100
0002
0003
,  // measure 18
0100
0010
1000
1000
,  // measure 19
0010
0001
0100
0000
,  // measure 20
1000
0100
2000
3000
,  // measure 21
0001
0100
0002
0003
,  // measure 22
0100
0010
0100
0001
,  // measure 23
1000
0100
0010
0000
,  // measure 24
0002
2000
0000
0000
,  // measure 25
0000
0000
0000
3003
,  // measure 26
2000
0002
0000
0000
,  // measure 27
0000
0000
0000
3003
,  // measure 28
0200
0020
0000
0000
,  // measure 29
0000
0000
0000
0330
,  // measure 30
0020
0200
0000
0000
,  // measure 31
0000
0000
0000
0330
;
