#TITLE:Eh, Eh (Nothing Else I Can Say);
#SUBTITLE:;
#ARTIST:Lady GaGa;
#TITLETRANSLIT:;
#SUBTITLETRANSLIT:;
#ARTISTTRANSLIT:;
#GENRE:;
#CREDIT:Chewphoria~;
#MENUCOLOR:;
#METERTYPE:DDR;
#BANNER:Eh, Eh (Nothing Else I Can Say).png;
#BACKGROUND:Eh, Eh (Nothing Else I Can Say)-bg.png;
#LYRICSPATH:;
#CDTITLE:;
#MUSIC:Eh, Eh (Nothing Else I Can Say).mp3;
#OFFSET:-0.051;
#SAMPLESTART:34.106;
#SAMPLELENGTH:12.000;
#SELECTABLE:YES;
#LISTSORT:;
#BPMS:0.000=94.000;
#STOPS:;
#BGCHANGES:;
#ATTACKS:;

//---------------dance-single - Chewphoria~----------------
#NOTES:
     dance-single:
     Chewphoria~:
     Hard:
     8:
     0.366,0.350,0.130,0.000,0.000: // measure 1
0000
0000
0000
0000
,  // measure 2
0000
0000
0000
0000
,  // measure 3
0000
1000
0001
0010
0000
0001
1000
0010
,  // measure 4
0000
0100
0100
0100
0010
0010
0010
0010
,  // measure 5
1000
0000
1100
0000
0001
0010
1000
0000
,  // measure 6
1000
0000
1010
0000
1000
0010
0001
0100
,  // measure 7
0010
0000
0000
0100
0010
0000
0000
1000
,  // measure 8
0001
1000
0100
0001
0100
1000
0001
0000
,  // measure 9
1000
0001
0010
1000
0010
0001
1000
0001
,  // measure 10
1000
0000
0000
0001
1000
0000
0000
0001
,  // measure 11
1000
0010
0100
0001
0100
0010
1010
0000
,  // measure 12
1000
0100
0010
0001
0010
0100
1100
0000
,  // measure 13
1000
0001
0100
0010
1010
0000
1001
0000
,  // measure 14
0001
0100
0010
1000
0001
1000
0010
0100
,  // measure 15
0101
0000
1000
0000
1000
0100
0010
0001
,  // measure 16
0000
1000
0010
0100
0001
0001
1000
1000
,  // measure 17
0001
0010
0100
1000
0000
1000
0100
0010
,  // measure 18
0001
0001
1000
1000
0010
0100
0001
0100
,  // measure 19
0010
0000
0000
0100
0010
0000
0000
1000
,  // measure 20
0100
0010
0000
0001
0010
0100
1000
0010
,  // measure 21
0100
0000
0000
0001
0100
0010
0000
1000
,  // measure 22
0001
1000
0100
0010
0001
0100
0010
1000
,  // measure 23
0001
0001
0100
0100
1000
0010
0001
0000
,  // measure 24
0001
0010
1000
0100
0001
0001
0100
0100
,  // measure 25
0010
0000
0000
0100
0010
0000
0000
0001
,  // measure 26
0010
0100
1000
0010
0100
0001
0100
0010
,  // measure 27
1000
1000
0001
0001
1001
0001
0010
0100
,  // measure 28
1000
0000
0000
0100
1000
0000
0000
1000
,  // measure 29
0010
0100
0001
0100
0010
1000
1001
0000
,  // measure 30
0001
0010
0100
1000
0010
0100
0101
0001
,  // measure 31
0100
0010
1000
0001
0010
0100
1000
0001
,  // measure 32
1001
0000
0000
1000
1001
0010
0100
1000
,  // measure 33
1100
0100
0001
0100
0000
1000
0010
1000
,  // measure 34
0000
1000
0010
0001
0100
1000
0100
0001
,  // measure 35
0000
0010
1000
0010
0000
0100
0001
0100
,  // measure 36
0000
0001
1000
0100
0010
0001
1000
0010
,  // measure 37
0100
0001
0100
0010
0000
0100
1000
0100
,  // measure 38
0000
0100
0010
1000
0100
0001
0010
0100
,  // measure 39
1000
0010
1000
0100
0000
0010
0001
0100
,  // measure 40
0000
0010
1000
0001
0010
0100
0010
0001
,  // measure 41
0100
0010
1000
0001
0000
0100
0010
0001
,  // measure 42
0100
0010
1000
0001
0010
0100
1000
0001
,  // measure 43
1000
0000
0000
0010
1000
0001
0000
0100
,  // measure 44
0001
1000
0000
0010
1000
0100
0001
0010
,  // measure 45
1000
0000
0000
1000
0001
0100
0000
0001
,  // measure 46
1000
0010
0000
1000
0010
0100
0001
0100
,  // measure 47
1100
0000
0000
0010
1100
0000
0000
0100
,  // measure 48
0011
0000
0010
0000
1000
0100
0001
0010
,  // measure 49
0010
0000
0000
0000
;

//---------------dance-single - Chewphoria~----------------
#NOTES:
     dance-single:
     Chewphoria~:
     Medium:
     6:
     0.239,0.273,0.138,0.000,0.000: // measure 1
0000
0000
0000
0000
,  // measure 2
0000
0000
0000
0000
,  // measure 3
0000
1000
0001
0000
0000
0001
1000
0000
,  // measure 4
0000
0010
0100
0000
0001
0000
0001
0000
,  // measure 5
0001
1000
0010
1010
,  // measure 6
0100
0100
0010
0010
,  // measure 7
1000
1000
0000
0000
0001
0001
0000
0000
,  // measure 8
1000
1000
0001
0000
,  // measure 9
0001
0001
0100
0000
,  // measure 10
0010
0100
0001
0100
,  // measure 11
0010
0010
0010
0000
1000
0000
1001
0000
,  // measure 12
0001
0001
0001
0000
1000
0000
1100
0000
,  // measure 13
0100
0100
0100
0000
0000
0000
0000
0000
,  // measure 14
0100
0000
0000
0100
0000
0010
0000
0001
,  // measure 15
0001
0000
1001
0000
0000
1000
1000
0000
,  // measure 16
0000
0010
0010
0000
0100
0000
0110
0000
,  // measure 17
0000
0010
0010
0000
0000
1000
1000
0000
,  // measure 18
0000
0001
0001
0000
1000
0000
1100
0000
,  // measure 19
0000
1000
0100
0000
0000
0010
0001
0000
,  // measure 20
0000
0001
0010
0000
0100
0000
1100
0000
,  // measure 21
0000
1000
0001
0000
0000
0100
0010
0000
,  // measure 22
0000
0010
0100
0000
0100
0000
0101
0000
,  // measure 23
0001
0000
0100
0000
0010
1000
0010
0000
,  // measure 24
1000
0000
0010
0000
1000
0100
1000
0000
,  // measure 25
0100
0000
0000
0100
0010
0000
0000
0000
,  // measure 26
0100
0000
0011
0000
0001
0010
0001
0000
,  // measure 27
0100
0000
0101
0000
0100
0010
0100
0000
,  // measure 28
0010
0000
0000
0010
0010
0000
0000
0000
,  // measure 29
0010
0000
1000
0000
0010
1000
0100
0000
,  // measure 30
0010
0000
0001
0000
0010
0001
0100
0000
,  // measure 31
0100
0010
0000
0000
,  // measure 32
0110
0000
0000
0000
0010
0000
1000
0011
,  // measure 33
0100
0100
0100
0100
,  // measure 34
0010
0010
0010
0010
,  // measure 35
0001
0001
0001
0001
,  // measure 36
1000
1000
1000
1000
,  // measure 37
0000
1000
1000
0000
0000
0100
0100
0000
,  // measure 38
0000
1000
1000
0000
0000
0000
0000
0000
,  // measure 39
0000
0010
0010
0000
0000
0001
0001
0000
,  // measure 40
0000
0010
0010
0000
0010
0000
0100
0000
,  // measure 41
0110
0000
1001
0000
,  // measure 42
1000
0000
0100
0000
0010
0000
0001
0001
,  // measure 43
0001
0010
0010
0100
,  // measure 44
0100
0000
1000
0000
1000
0001
1000
0001
,  // measure 45
1000
0010
0100
0101
,  // measure 46
0001
0000
0100
0000
0010
1000
0001
0000
,  // measure 47
0010
0110
0100
0100
,  // measure 48
0100
1000
0010
0001
0010
1000
0100
0000
,  // measure 49
1100
0000
0000
0000
;

//---------------dance-single - Chewphoria~----------------
#NOTES:
     dance-single:
     Chewphoria~:
     Easy:
     3:
     0.165,0.214,0.073,0.122,0.000: // measure 1
0000
0000
0000
0000
,  // measure 2
0000
0000
0000
0000
,  // measure 3
1000
0000
1001
0000
,  // measure 4
0001
0000
1001
0000
,  // measure 5
0200
0000
0000
0300
,  // measure 6
0020
0000
0000
0030
,  // measure 7
1000
0000
1000
0000
,  // measure 8
1000
0000
0001
0000
,  // measure 9
0100
0000
0001
0000
,  // measure 10
1000
0000
1001
0000
,  // measure 11
2000
0000
0000
3000
,  // measure 12
0020
0000
0000
0030
,  // measure 13
2000
0000
0000
3000
,  // measure 14
0100
0000
0100
0010
,  // measure 15
1000
1000
1000
1000
,  // measure 16
0001
0001
0001
0001
,  // measure 17
0010
0010
0010
0010
,  // measure 18
0100
0100
0100
0100
,  // measure 19
1000
0100
1000
0100
,  // measure 20
1000
0100
1000
0100
,  // measure 21
0001
0010
0001
0010
,  // measure 22
0001
0010
0001
0010
,  // measure 23
1001
0000
0100
0010
,  // measure 24
0110
0000
0010
0100
,  // measure 25
0100
0000
0100
0000
,  // measure 26
0100
0001
1000
1000
,  // measure 27
0100
1000
0001
0001
,  // measure 28
1001
0000
0100
0000
,  // measure 29
0010
0100
0010
0110
,  // measure 30
0100
0100
0100
0110
,  // measure 31
1000
0000
0000
0000
,  // measure 32
0001
1000
0001
1000
,  // measure 33
2000
0000
0000
3000
,  // measure 34
2000
0000
0000
3000
,  // measure 35
0002
0000
0000
0003
,  // measure 36
0002
0000
0000
0003
,  // measure 37
0100
0100
0100
0100
,  // measure 38
0100
0100
0100
0100
,  // measure 39
0010
0001
0010
0001
,  // measure 40
0010
0001
0010
0001
,  // measure 41
2000
0000
0000
3000
,  // measure 42
2000
0000
0000
3000
,  // measure 43
0002
0000
0000
0003
,  // measure 44
0002
0000
0000
0003
,  // measure 45
0200
0000
0000
0300
,  // measure 46
0200
0000
0000
0300
,  // measure 47
0010
0010
0010
0010
,  // measure 48
0010
0010
0010
0010
,  // measure 49
0110
0000
0000
0000
;

//---------------dance-single - Chewphoria~----------------
#NOTES:
     dance-single:
     Chewphoria~:
     Beginner:
     1:
     0.060,0.097,0.024,0.000,0.000: // measure 1
0000
0000
0000
0000
,  // measure 2
0000
0000
0000
0000
,  // measure 3
1000
0000
0000
0000
,  // measure 4
0001
0000
0000
0000
,  // measure 5
0100
0000
0000
0000
,  // measure 6
0010
0000
0000
0000
,  // measure 7
1000
0000
0000
0000
,  // measure 8
1000
0000
0000
0000
,  // measure 9
0100
0000
0000
0000
,  // measure 10
1000
0000
0000
0000
,  // measure 11
1000
0000
0000
0000
,  // measure 12
0010
0000
0000
0000
,  // measure 13
1000
0000
0000
0000
,  // measure 14
0100
0000
0000
0000
,  // measure 15
1000
0000
0000
0000
,  // measure 16
0001
0000
0000
0000
,  // measure 17
0010
0000
0000
0000
,  // measure 18
0100
0000
0000
0000
,  // measure 19
1000
0000
0000
0000
,  // measure 20
1000
0000
0000
0000
,  // measure 21
0001
0000
0000
0000
,  // measure 22
0001
0000
0000
0000
,  // measure 23
1001
0000
0000
0000
,  // measure 24
0110
0000
0000
0000
,  // measure 25
0100
0000
0000
0000
,  // measure 26
0100
0000
0000
0000
,  // measure 27
0100
0000
0000
0000
,  // measure 28
1001
0000
0000
0000
,  // measure 29
0010
0000
0000
0000
,  // measure 30
0100
0000
0000
0000
,  // measure 31
1000
0000
0000
0000
,  // measure 32
0001
0000
0000
0000
,  // measure 33
1000
0000
0000
0000
,  // measure 34
1000
0000
0000
0000
,  // measure 35
0001
0000
0000
0000
,  // measure 36
0001
0000
0000
0000
,  // measure 37
0100
0000
0000
0000
,  // measure 38
0100
0000
0000
0000
,  // measure 39
0010
0000
0000
0000
,  // measure 40
0010
0000
0000
0000
,  // measure 41
1000
0000
0000
0000
,  // measure 42
1000
0000
0000
0000
,  // measure 43
0001
0000
0000
0000
,  // measure 44
0001
0000
0000
0000
,  // measure 45
0100
0000
0000
0000
,  // measure 46
0100
0000
0000
0000
,  // measure 47
0010
0000
0010
0000
,  // measure 48
0010
0000
0010
0000
,  // measure 49
0010
0000
0000
0000
;
