#TITLE:Echo;
#SUBTITLE:;
#ARTIST:Trevor Moran;
#TITLETRANSLIT:;
#SUBTITLETRANSLIT:;
#ARTISTTRANSLIT:;
#GENRE:Trap Pop;
#CREDIT:chewi;
#BANNER:Echo.png;
#BACKGROUND:Echo-bg.png;
#LYRICSPATH:;
#CDTITLE:cdtitle.png;
#MUSIC:Echo.ogg;
#OFFSET:-0.052000;
#SAMPLESTART:19.433001;
#SAMPLELENGTH:15.000000;
#SELECTABLE:YES;
#BPMS:0.000000=99.000000
;
#STOPS:
;
#BGCHANGES:-0.104=Echo.avi=1.000=1=0=0=StretchNoLoop==CrossFade==,
99999=-nosongbg-=1.000=0=0=0 // don't automatically add -songbackground-
;
#KEYSOUNDS:;
#ATTACKS:;

//---------------dance-single - ----------------
#NOTES:
     dance-single:
     :
     Beginner:
     1:
     0.051114,0.079339,0.023335,0.000000,0.000000,46.000000,43.000000,3.000000,0.000000,0.000000,0.000000,0.051114,0.079339,0.023335,0.000000,0.000000,46.000000,43.000000,3.000000,0.000000,0.000000,0.000000:
0000
0000
0000
0000
,
0000
0000
0000
0000
,
0000
0000
0000
0000
,
0000
0000
0000
0000
,
0010
0000
0000
0000
,
0100
0000
0000
0000
,
0010
0000
0000
0000
,
0100
0000
0000
0000
,
1000
0000
0000
0000
,
0001
0000
0000
0000
,
1000
0000
0000
0000
,
0001
0000
0000
0000
,
1000
0000
0000
0000
,
0100
0000
0000
0000
,
0010
0000
0000
0000
,
0001
0000
0000
0000
,
1001
0000
0000
0000
,
0100
0000
0000
0000
,
0100
0000
0000
0000
,
0100
0000
0000
0000
,
1001
0000
0000
0000
,
0010
0000
0000
0000
,
0010
0000
0000
0000
,
0010
0000
0000
0000
,
0000
0000
0000
0000
,
1000
0000
0001
0000
,
1000
0000
0000
0000
,
0001
0000
1000
0000
,
0001
0000
0000
0000
,
0100
0000
0000
0000
,
1000
0000
0000
0000
,
0100
0000
0000
0000
,
0100
0000
0000
0000
,
0000
0000
0000
0000
,
0010
0000
0000
0000
,
0000
0000
0000
0000
,
0001
0000
0000
0000
,
0000
0000
0000
0000
,
1000
0000
0000
0000
,
0000
0000
0000
0000
,
0001
0000
0000
0000
,
0000
0000
0000
0000
,
0100
0000
0000
0000
,
0000
0000
0000
0000
,
0010
0000
0000
0000
,
0010
0000
0000
0000
,
0100
0000
0000
0000
,
0100
0000
0000
0000
,
1001
0000
0000
0000
,
0010
0000
0000
0000
,
0010
0000
0000
0000
,
0010
0000
0000
0000
;

//---------------dance-single - ----------------
#NOTES:
     dance-single:
     :
     Easy:
     4:
     0.106674,0.161011,0.031113,0.000000,0.000000,96.000000,92.000000,4.000000,0.000000,0.000000,0.000000,0.106674,0.161011,0.031113,0.000000,0.000000,96.000000,92.000000,4.000000,0.000000,0.000000,0.000000:
0000
0000
0000
0000
,
0000
0000
0000
0000
,
0000
0000
0000
0000
,
0000
0000
0000
0000
,
1000
0000
0000
0000
,
0100
0000
0000
0000
,
0001
0000
0000
0000
,
0010
0000
0000
0000
,
1000
0100
1000
0000
,
0001
0100
0001
0000
,
1000
0010
1000
0000
,
0001
0010
0001
0000
,
0010
0010
0100
0000
,
0100
0100
0010
0000
,
0001
0001
1000
0000
,
1000
1000
0001
0000
,
1001
0000
1000
0000
,
0001
0000
1000
0000
,
0010
0000
0100
0000
,
0010
0000
0100
0000
,
0110
0000
0100
0000
,
0010
0000
0100
0000
,
0001
0000
1000
0000
,
0001
0000
1000
0000
,
0000
0000
0000
0000
,
1001
0000
1000
0000
,
0001
0000
1000
0000
,
0001
0010
0100
1000
,
0001
0000
1000
0000
,
0010
0000
0100
0000
,
0010
0100
0001
1000
,
0010
0000
0010
0000
,
0110
0000
0000
0000
,
1000
0000
0000
0000
,
0001
0000
0000
0000
,
1000
0000
0000
0000
,
0001
0000
0001
0000
,
0001
0000
0000
0000
,
1000
0000
1000
0000
,
1000
0000
0000
0000
,
0100
0000
0100
0000
,
0100
0000
0000
0000
,
0010
0000
0010
0000
,
0010
0000
0000
0000
,
0010
0000
0000
0000
,
0010
0000
0000
0000
,
0100
0000
0000
0000
,
0100
0000
0000
0000
,
1000
0000
1000
0000
,
1000
0000
1000
0000
,
0001
0000
0010
0000
,
0100
1000
0001
0010
;

//---------------dance-single - ----------------
#NOTES:
     dance-single:
     :
     Medium:
     7:
     0.237793,0.282449,0.155566,0.000000,0.058337,214.000000,194.000000,20.000000,0.000000,0.000000,0.000000,0.237793,0.282449,0.155566,0.000000,0.058337,214.000000,194.000000,20.000000,0.000000,0.000000,0.000000:
0000
0000
0000
0000
,
0000
0000
0000
0000
,
0000
0000
0000
0000
,
0000
0000
0000
0000
,
1000
0000
0000
1000
0000
0000
1000
0000
0000
0000
0000
0000
0000
0000
0000
0000
,
0001
0000
0000
0001
0000
0000
0001
0000
0000
0000
0000
0000
0000
0000
0000
0000
,
0100
0000
0000
0100
0000
0000
0100
0000
0000
0000
0000
0000
0000
0000
0000
0000
,
0010
0000
0000
0010
0000
0000
0010
0000
0000
0000
0000
0000
0000
0000
0000
0000
,
1000
0000
0100
0000
0010
0100
1000
0000
,
1000
0100
1100
0000
,
0001
0000
0100
0000
0010
0000
0100
0001
,
0010
0010
0011
0000
,
0010
0000
0100
0000
1000
0000
0001
1000
,
0001
0001
0101
0000
,
0001
0000
0010
0000
0100
0000
1000
0001
,
0100
0001
0101
0000
,
0100
0100
0100
0100
,
0010
0010
0010
0010
,
1000
1000
1000
1000
,
0001
0001
0001
0001
,
1000
0001
1000
0000
0001
0000
0001
0000
,
0001
1000
0001
0000
1000
0000
1000
0000
,
0010
0100
0010
0000
0100
0000
0100
0000
,
0100
0010
0100
0000
0010
0000
0010
0000
,
0000
0000
0000
0000
0000
0000
0000
0000
0000
0000
1000
0000
0000
1000
0000
0000
,
1000
0000
1000
0000
0000
0000
0001
0001
,
0010
0000
0010
0000
0000
0010
0010
0000
,
0100
0000
0100
0000
0000
0100
0100
0000
,
1000
0001
0010
0001
,
1001
0101
1001
1010
,
1000
0001
0100
0010
,
0110
1010
1001
0011
,
0010
0000
0000
0010
0000
0000
0010
0000
0000
0010
0000
0000
0010
0000
0000
0000
,
0100
0000
0000
0100
0000
0000
0100
0000
0000
0100
0000
0000
0100
0000
0000
0000
,
1000
0000
0000
1000
0000
0000
1000
0000
0000
1000
0000
0000
1000
0000
0000
0000
,
0001
0000
0000
0001
0000
0000
0001
0000
0000
0001
0000
0000
0001
0000
0000
0000
,
0000
0000
1000
0000
0001
1000
0000
0000
,
1000
0000
0001
1000
0001
0000
0000
0000
,
0000
0000
0100
0000
0100
0000
0000
0000
0010
0000
0000
0100
0000
0000
0010
0000
,
0000
0000
0000
0000
,
0000
0000
0010
0000
1000
0010
0000
0000
,
1000
0000
0001
0010
0100
0000
0000
0000
,
0000
0000
0000
0000
1000
0000
0000
0000
0001
0000
0000
0010
0000
0000
0001
0000
,
0000
1000
1000
0000
0000
0000
0001
0000
,
1000
0000
0001
0000
1000
0100
0000
0100
,
0010
0000
0100
0000
1000
0001
0010
0010
,
0001
0000
0001
0000
0100
0001
0000
0001
,
0100
0000
0010
0000
1000
0010
1000
0000
,
0010
0010
0100
0100
,
0101
0011
1100
1010
,
1000
1000
0001
0001
,
1001
0000
1100
0000
1001
0000
0101
0100
;

//---------------dance-single - ----------------
#NOTES:
     dance-single:
     :
     Hard:
     12:
     0.390026,0.544723,0.350023,0.000000,0.190568,351.000000,306.000000,45.000000,0.000000,0.000000,0.000000,0.390026,0.544723,0.350023,0.000000,0.190568,351.000000,306.000000,45.000000,0.000000,0.000000,0.000000:
// measure 0
0000
0000
0000
0000
,  // measure 1
0000
0000
0000
0000
,  // measure 2
0000
0000
0000
0000
,  // measure 3
0000
0000
0000
0000
,  // measure 4
1000
0000
0000
0010
0000
0000
0100
0000
0000
0010
0000
0000
1000
0000
1000
0000
,  // measure 5
0001
0000
0000
0010
0000
0000
0100
0000
0000
0010
0000
0000
0001
0000
0001
0000
,  // measure 6
1000
0000
0000
0100
0000
0000
1000
0000
0000
0001
0000
0000
1000
0000
1000
0000
,  // measure 7
0001
0000
0000
0100
0000
0000
0001
0000
0000
1000
0000
0000
0001
0000
0001
0000
,  // measure 8
1000
0000
0000
0000
0001
0000
0000
0000
1000
0001
0000
0000
1001
0000
0000
0000
,  // measure 9
0001
1000
0100
0000
1000
0000
0001
0000
0100
0000
0000
0000
0101
0000
0000
0000
,  // measure 10
0100
0001
1000
0010
0100
0010
1000
0010
,  // measure 11
0100
0001
0010
0100
0010
0001
0100
0001
,  // measure 12
0010
0000
0000
0000
0100
0000
0000
0000
1000
0100
0000
0000
1100
0000
0000
0000
,  // measure 13
1000
0001
0010
0000
0001
0000
1000
0000
0100
0000
0000
0000
1001
0000
0000
0000
,  // measure 14
1000
0000
0010
0000
0100
0000
0010
0000
1000
0000
0000
0001
0000
0000
0100
0000
,  // measure 15
0000
0001
0001
0000
1000
0000
0001
0000
,  // measure 16
1000
0000
1000
0000
1000
0000
1000
0100
,  // measure 17
0010
0000
0010
0000
0010
0000
0010
0100
,  // measure 18
1000
0000
1000
0000
1000
0000
1000
0001
,  // measure 19
0100
0000
0100
0000
0100
0000
0100
0010
,  // measure 20
1000
0010
0100
0001
1000
0010
0100
0001
,  // measure 21
1000
0100
0010
0001
1000
0100
0010
0001
,  // measure 22
1000
0100
1000
0100
1000
0100
1000
0100
,  // measure 23
0010
0000
0000
0001
0000
0000
0010
0000
0000
0001
0000
0000
0010
0000
0001
0000
0010
0000
0001
0000
0000
0000
0000
0000
,  // measure 24
0000
0000
0000
0000
0000
0000
0000
0000
0000
0000
0011
0000
0000
1001
0000
0000
,  // measure 25
1100
0000
1000
0001
0010
0100
1000
0000
0100
0000
1000
0000
1001
0000
1001
0000
,  // measure 26
1000
0000
0010
0100
0010
1000
0010
0000
0100
0000
0001
0000
0000
1000
0000
0000
,  // measure 27
0010
0000
1000
0001
0010
0100
1000
0001
1000
0000
1000
0000
0001
1000
0001
0000
,  // measure 28
1001
0000
0100
0010
1000
0000
0001
0000
0100
0000
0010
1000
0001
0000
0010
0000
,  // measure 29
1100
0011
0101
1010
1001
0100
1001
0100
,  // measure 30
1001
0000
1000
0100
0010
0000
0100
0000
1000
0000
0001
0010
0100
0000
0010
0000
,  // measure 31
0011
0101
1010
1100
1001
1000
1001
0001
,  // measure 32
0001
0000
0000
0001
0000
0000
1000
0000
0000
1000
0000
0000
0001
0000
0010
0000
,  // measure 33
0100
0000
0000
0100
0000
0000
0010
0000
0000
0010
0000
0000
0100
0000
1000
0000
,  // measure 34
0001
0000
0000
0001
0000
0000
0010
0000
0000
0010
0000
0000
0001
0000
0010
0000
,  // measure 35
0100
0000
0000
0100
0000
0000
1000
0000
0000
1000
0000
0000
0001
0000
1000
0000
,  // measure 36
0001
0000
0000
0000
1000
0000
0000
0000
0001
1000
0000
0000
0000
0000
0000
0000
,  // measure 37
1000
0001
0100
0000
0010
0000
0100
0000
0010
0000
0000
0000
0000
0000
0000
0000
,  // measure 38
0000
0000
0100
0000
0010
0000
1000
0000
0010
0000
0000
0100
0000
0000
0001
0000
,  // measure 39
0000
0000
0000
0000
,  // measure 40
0000
0000
0000
0000
1000
0000
0000
0000
0001
1000
0000
0000
0000
0000
0000
0000
,  // measure 41
0001
1000
0100
0000
0010
0000
0100
0000
1000
0000
0000
0000
0000
0000
0000
0000
,  // measure 42
0000
0000
0001
0000
0010
0000
0100
0000
0010
0000
0000
0010
0000
0000
0001
0000
,  // measure 43
0000
0001
1000
0000
0000
0000
1001
0000
,  // measure 44
0000
0000
0000
0000
0000
0110
0000
0000
,  // measure 45
1010
0000
1000
0000
0010
0100
0101
0101
,  // measure 46
0011
0000
1001
0000
,  // measure 47
1000
0000
0000
0000
0000
0000
0000
0000
1001
0000
1000
0100
0010
0100
1000
0000
,  // measure 48
0001
0000
0010
0100
1000
0000
0010
0000
0100
0000
0001
0100
0010
0000
1000
0000
,  // measure 49
1001
0101
1001
1100
1001
0010
1001
0100
,  // measure 50
1000
0000
0001
0100
0010
0000
1000
0000
0001
0000
0100
0010
1000
0000
0001
0000
,  // measure 51
1100
1100
0110
0110
0011
0011
1001
1001
;
