#TITLE:EVO66;
#SUBTITLE:;
#ARTIST:Wall5;
#TITLETRANSLIT:;
#SUBTITLETRANSLIT:;
#ARTISTTRANSLIT:;
#GENRE:;
#CREDIT:Chewphoria~;
#MENUCOLOR:;
#METERTYPE:DDR;
#BANNER:EVO66.PNG;
#BACKGROUND:EVO66-bg.PNG;
#LYRICSPATH:;
#CDTITLE:;
#MUSIC:EVO66.MP3;
#OFFSET:-7.485;
#SAMPLESTART:28.766;
#SAMPLELENGTH:15.000;
#SELECTABLE:YES;
#LISTSORT:;
#BPMS:0.000=135.020;
#STOPS:;
#BGCHANGES:;
#ATTACKS:;

//---------------dance-single - Chewphoria~----------------
#NOTES:
     dance-single:
     Chewphoria~:
     Hard:
     12:
     0.599,0.571,0.114,0.081,0.385: // measure 1
1000
0100
1000
0000
0100
0001
0100
0000
,  // measure 2
0001
0010
0001
0000
0010
1000
0010
0000
,  // measure 3
1000
0100
0010
0001
1000
0100
0010
0001
,  // measure 4
1000
0001
0010
2002
0000
0000
0000
0000
,  // measure 5
3003
0000
0100
0001
0000
0100
0000
0000
0000
0000
0010
1000
0000
0010
0000
0000
,  // measure 6
0000
0000
1000
0100
0000
1000
0000
0000
0000
0000
0001
0100
0000
0001
0000
0000
,  // measure 7
0000
0000
0100
0010
0000
0100
0000
0000
0000
0000
0010
1000
0000
0010
0000
0000
,  // measure 8
1100
0010
0001
0010
1100
0001
0100
0010
,  // measure 9
0000
0000
0100
0001
0000
0100
0000
0000
0000
0000
0010
1000
0000
0010
0000
0000
,  // measure 10
1000
0001
1000
0001
1000
0000
0000
0000
0100
0000
1000
0000
0100
0000
0010
0000
,  // measure 11
0012
0100
0203
0010
,  // measure 12
0320
0000
1000
0000
1030
0001
1000
0000
,  // measure 13
1000
0000
0100
0000
1000
0001
0000
0000
1000
0000
0100
0000
1000
0001
0000
0000
,  // measure 14
1000
0000
0010
0000
1000
0001
0000
0000
1000
0000
0010
0000
1000
0001
0000
0000
,  // measure 15
0001
0000
0010
0000
0001
1000
0000
0000
0001
0000
0010
0000
0001
1000
0000
0000
,  // measure 16
0001
0000
0100
0000
0001
1000
0000
0000
0001
0000
0100
0000
0001
1000
0000
0000
,  // measure 17
1000
0000
0010
0000
0100
0001
0000
0000
1000
0000
0010
0000
0100
0001
0000
0000
,  // measure 18
1000
0000
0100
0000
0010
0001
0000
0000
1000
0000
0100
0000
0010
0001
0000
0000
,  // measure 19
1000
0000
0010
0000
0001
0100
0000
0000
0010
0000
1000
0000
0001
0100
0000
0000
,  // measure 20
0010
1000
0001
0010
0200
0000
2300
0000
,  // measure 21
3100
0000
1000
0100
0000
0100
1000
0000
0010
0000
0100
0010
0000
0010
0100
0000
,  // measure 22
0001
0000
0100
0001
0000
0001
0100
0000
0010
0000
1000
0001
0000
0001
1000
0000
,  // measure 23
0001
0000
0010
0001
0000
0001
0010
0000
0100
0000
1000
0100
0000
0100
1000
0000
,  // measure 24
1000
0000
0010
0100
0000
0100
0010
0000
0100
0000
0100
0000
0100
0000
0100
0000
,  // measure 25
0010
0000
0100
0001
0000
0001
0100
0000
0010
0000
1000
0010
0000
0010
1000
0000
,  // measure 26
0001
0000
0010
0001
0000
0001
0010
0000
0100
0000
1000
0100
0000
0100
1000
0000
,  // measure 27
0001
0000
0100
0001
0000
0001
0100
0000
0010
0000
0100
0010
0000
0010
0100
0000
,  // measure 28
0010
0100
0010
0100
0010
0000
1000
0000
0100
0000
0010
0000
0001
0000
0010
0000
,  // measure 29
2100
0001
0010
3001
,  // measure 30
0100
0000
0000
1000
0000
0000
0100
0000
0000
0001
0000
0000
0100
0000
1000
0000
,  // measure 31
0010
0001
0010
1000
,  // measure 32
0010
0000
0001
0010
0000
0001
0010
0000
0100
0000
1000
0100
0000
1000
0100
0000
,  // measure 33
1000
0010
0100
0001
1000
0010
0100
0001
,  // measure 34
1000
0100
0010
0001
1000
0100
0010
0001
,  // measure 35
1000
0001
0100
0010
1000
0001
0010
0100
,  // measure 36
0020
0000
0000
0000
0100
0100
0130
0000
,  // measure 37
0100
0000
0010
0000
0001
0100
0000
0000
0010
0000
0100
0000
0001
0100
0000
0000
,  // measure 38
0010
0000
1000
0000
0100
1000
0000
0000
0010
0000
0010
0000
0010
0000
0000
0000
,  // measure 39
1000
0000
0100
0000
0010
0001
0000
0000
0010
0000
0100
0000
1000
0100
0000
0000
,  // measure 40
1000
0000
0010
0000
0100
0001
0000
0000
0100
0000
0100
0000
0100
0000
0000
0000
,  // measure 41
0010
0000
1000
0000
0100
1000
0100
0000
0010
0000
0100
0000
0001
0100
0001
0000
,  // measure 42
0001
0000
0010
0000
0001
0010
0001
0000
0010
0000
0100
0000
1000
0000
0001
0000
,  // measure 43
0010
0000
0100
0000
0010
0100
0010
0000
0001
0000
0100
0000
0010
0100
0010
0000
,  // measure 44
0100
0000
0001
0000
0100
0001
0100
0000
0001
0000
0000
0000
0101
0000
0000
0000
,  // measure 45
0010
1000
0010
1000
0010
0001
0010
0001
,  // measure 46
0100
0001
0100
0001
0100
1000
0100
1000
,  // measure 47
0100
1000
0010
1000
0100
1000
0010
1000
,  // measure 48
0100
1000
0010
0100
0001
0010
0100
0010
,  // measure 49
0011
0100
1000
0010
,  // measure 50
0101
0010
1010
0011
,  // measure 51
0100
1000
0101
1010
,  // measure 52
1001
0000
0100
0000
0010
0001
0010
0000
,  // measure 53
0001
0000
1000
0000
0100
1000
0100
0000
1000
0000
0001
0000
1000
0010
1000
0000
,  // measure 54
0010
0000
0100
0000
0001
0100
0001
0000
0100
0000
0010
0000
0100
0000
0010
0000
,  // measure 55
0100
0000
0001
0000
0100
0001
0100
0000
0010
0000
1000
0000
0010
1000
0010
0000
,  // measure 56
1000
0000
0001
0000
0010
0001
0010
0000
0010
0000
0100
0000
1000
0000
0010
0000
,  // measure 57
1000
0000
0100
0000
1000
0100
1000
0000
0001
0000
0100
0000
0010
0100
0010
0000
,  // measure 58
0100
0000
0001
0000
0100
0001
0100
0000
0010
0000
1000
0000
0001
0000
0010
0000
,  // measure 59
0100
0000
1000
0000
0100
1000
0100
0000
0001
0000
0010
0000
0001
0010
0001
0000
,  // measure 60
0100
0000
0010
0000
0100
0010
0100
0000
0010
0000
1000
0000
1001
0000
0000
0000
,  // measure 61
0010
0000
0100
0000
1000
0100
1000
0000
0010
0000
0001
0000
0100
0001
0100
0000
,  // measure 62
0100
0000
0010
0000
1000
0001
1000
0000
1000
0000
0100
0000
0001
0000
0100
0000
,  // measure 63
1000
0000
0010
0000
0100
0010
0100
0000
0001
0000
0100
0000
0001
0100
0001
0000
,  // measure 64
0100
0010
1000
0001
0010
0010
0020
0000
,  // measure 65
0030
0000
0000
0000
;

//---------------dance-single - Chewphoria~----------------
#NOTES:
     dance-single:
     Chewphoria~:
     Beginner:
     2:
     0.161,0.207,0.089,0.000,0.000: // measure 1
1000
0000
0001
0000
,  // measure 2
1000
0000
0001
0000
,  // measure 3
0100
0000
0100
0000
,  // measure 4
0100
0000
0000
0000
,  // measure 5
0000
1001
0000
1000
,  // measure 6
0000
1000
0000
1000
,  // measure 7
0000
0001
0000
0001
,  // measure 8
0000
0001
0000
0001
,  // measure 9
0010
0000
0010
0000
,  // measure 10
0010
0000
0100
0000
,  // measure 11
0110
0000
0100
0000
,  // measure 12
0001
0000
0000
0000
,  // measure 13
1000
1000
1000
0000
,  // measure 14
1001
0000
0001
0000
,  // measure 15
0001
0001
0001
0000
,  // measure 16
0001
0000
1001
0000
,  // measure 17
0100
0000
0010
0000
,  // measure 18
1000
0000
0001
0000
,  // measure 19
0001
0000
0001
0000
,  // measure 20
0100
0000
0100
0000
,  // measure 21
0010
0010
0010
0000
,  // measure 22
0010
0000
0100
0000
,  // measure 23
0100
0100
0100
0000
,  // measure 24
0100
0000
0100
0000
,  // measure 25
1000
1000
1000
0000
,  // measure 26
1000
0000
0001
0000
,  // measure 27
0001
0001
0001
0000
,  // measure 28
0001
0000
0001
0000
,  // measure 29
1001
0000
0000
0000
,  // measure 30
1000
0000
0000
0000
,  // measure 31
0001
0000
0000
0000
,  // measure 32
0100
0000
0000
0000
,  // measure 33
0010
0000
0010
0000
,  // measure 34
0100
0000
0100
0000
,  // measure 35
0001
0000
0001
0000
,  // measure 36
1001
0000
0000
0000
,  // measure 37
1000
1000
1000
0000
,  // measure 38
1000
0000
0000
0000
,  // measure 39
0001
0001
0001
0000
,  // measure 40
0001
0000
0000
0000
,  // measure 41
0010
0010
0010
0000
,  // measure 42
0010
0000
0000
0000
,  // measure 43
0100
0100
0100
0000
,  // measure 44
0100
0000
0000
0000
,  // measure 45
1001
0000
0000
0000
,  // measure 46
1000
0000
0000
0000
,  // measure 47
1001
0000
0000
0000
,  // measure 48
0001
0000
0000
0000
,  // measure 49
0100
0000
0100
0000
,  // measure 50
0010
0000
0010
0000
,  // measure 51
1000
0000
1000
0000
,  // measure 52
0001
0000
0001
0001
,  // measure 53
0001
0000
1001
0000
,  // measure 54
1000
0000
1000
1000
,  // measure 55
1000
0000
0001
0000
,  // measure 56
1001
0000
0100
0100
,  // measure 57
0110
0000
0010
0000
,  // measure 58
0010
0000
0010
0010
,  // measure 59
0010
0000
0001
0000
,  // measure 60
0100
0000
1000
0000
,  // measure 61
1000
0000
0001
0000
,  // measure 62
1000
0000
0001
0000
,  // measure 63
0010
0000
0100
0000
,  // measure 64
0100
0000
0010
0010
;

//---------------dance-single - Chewphoria~----------------
#NOTES:
     dance-single:
     Chewphoria~:
     Easy:
     5:
     0.269,0.260,0.065,0.081,0.000: // measure 1
1000
1000
0100
0010
,  // measure 2
0001
0001
0100
0010
,  // measure 3
0001
0100
1000
1000
,  // measure 4
1000
0100
0000
0001
,  // measure 5
0010
0001
0100
0000
,  // measure 6
0010
0001
0100
0000
,  // measure 7
0010
1000
0100
0100
,  // measure 8
0010
1000
0200
0300
,  // measure 9
0010
0001
0100
0010
,  // measure 10
0010
1000
0100
0010
,  // measure 11
0110
0000
1001
0000
,  // measure 12
0110
0000
1001
0000
,  // measure 13
0001
0010
1000
0100
,  // measure 14
0001
0010
1000
0100
,  // measure 15
0001
0010
1000
0100
,  // measure 16
0001
0010
1000
0100
,  // measure 17
0001
0100
1000
0010
,  // measure 18
0001
0100
1000
0010
,  // measure 19
0001
0100
1000
0010
,  // measure 20
0002
0000
0200
0303
,  // measure 21
0001
0010
0100
1000
,  // measure 22
0001
0000
1001
0000
,  // measure 23
1000
0100
0010
0001
,  // measure 24
0001
0000
1001
0000
,  // measure 25
1000
0010
1000
0010
,  // measure 26
0001
0010
0001
0010
,  // measure 27
0001
0100
0001
0100
,  // measure 28
1000
0100
1000
0100
,  // measure 29
1000
0100
0001
0000
,  // measure 30
1000
0100
0001
0000
,  // measure 31
1000
0001
1000
0001
,  // measure 32
0010
0100
0010
0100
,  // measure 33
0001
0010
1000
0000
,  // measure 34
0001
0010
1000
0000
,  // measure 35
0001
1000
0001
1000
,  // measure 36
0200
0000
0020
0330
,  // measure 37
0001
0010
0100
0000
,  // measure 38
1000
0100
0010
0000
,  // measure 39
0001
0010
0100
0000
,  // measure 40
1000
0100
0010
0000
,  // measure 41
1000
1000
0100
0010
,  // measure 42
0001
0100
1000
0010
,  // measure 43
0001
0001
0100
0010
,  // measure 44
1000
1000
0100
0010
,  // measure 45
0010
0000
0010
0000
,  // measure 46
0200
0300
0100
0000
,  // measure 47
0100
0000
0001
0000
,  // measure 48
0002
0003
1000
0000
,  // measure 49
1000
1000
1000
1000
,  // measure 50
0100
0100
0100
0100
,  // measure 51
0010
0010
0010
0010
,  // measure 52
0001
0001
0001
0001
,  // measure 53
1000
0100
0001
0000
,  // measure 54
1000
0100
0001
0000
,  // measure 55
0001
0010
1000
0000
,  // measure 56
0001
0010
1000
0000
,  // measure 57
2000
0001
3001
0000
,  // measure 58
0001
0000
1001
0000
,  // measure 59
0002
1000
1003
0000
,  // measure 60
0001
0000
1001
0000
,  // measure 61
1000
0100
0001
0010
,  // measure 62
1000
0100
0001
0010
,  // measure 63
1000
0010
0001
0100
,  // measure 64
1000
0010
0001
0200
,  // measure 65
0300
0000
0000
0000
;

//---------------dance-single - Chewphoria~----------------
#NOTES:
     dance-single:
     Chewphoria~:
     Medium:
     7:
     0.361,0.441,0.178,0.170,0.000: // measure 1
1000
0100
0010
0001
,  // measure 2
1000
0010
0100
0001
,  // measure 3
0100
0010
1000
0001
,  // measure 4
0010
0000
0100
0000
0000
0220
0000
0000
,  // measure 5
0330
0010
0000
0000
0000
0001
0000
0000
,  // measure 6
0000
0010
0000
0000
0000
0100
0000
0000
,  // measure 7
0000
1000
0000
0000
0000
0010
0000
0000
,  // measure 8
0100
0100
0010
0010
,  // measure 9
0000
0100
0000
0000
0000
0001
0000
0000
,  // measure 10
0010
0010
1000
0100
,  // measure 11
0002
0003
2000
3000
,  // measure 12
0020
0000
0030
0000
0100
0100
0100
0000
,  // measure 13
0020
1030
0020
1030
,  // measure 14
0020
0031
0020
0031
,  // measure 15
0200
0301
0200
1300
,  // measure 16
0200
1300
0200
0301
,  // measure 17
0001
0010
1000
0000
0100
0000
0010
0000
,  // measure 18
1000
0100
0001
0000
0010
0000
0100
0000
,  // measure 19
0001
0100
0010
0000
1000
0000
0001
0000
,  // measure 20
1000
0001
0020
0000
,  // measure 21
0130
0000
0100
0000
,  // measure 22
0100
0000
0000
0000
0100
0010
0100
0000
,  // measure 23
0010
0000
0010
0000
,  // measure 24
0010
0000
0000
0000
0010
0100
0010
0000
,  // measure 25
1000
0100
0001
0100
,  // measure 26
1000
0010
0001
0010
,  // measure 27
1000
0100
0010
0001
,  // measure 28
0010
0100
1000
0010
,  // measure 29
0100
0100
0100
0100
,  // measure 30
0010
0010
0010
0010
,  // measure 31
0010
1000
0010
0000
1000
0010
1000
0000
,  // measure 32
0010
1000
0010
0000
1000
0010
1000
0000
,  // measure 33
0001
0010
0100
1000
,  // measure 34
0001
0100
0010
1000
,  // measure 35
0010
0100
0001
1000
,  // measure 36
1002
0000
0000
0000
0100
0100
0103
0000
,  // measure 37
1000
0010
1000
0000
0001
0010
0001
0000
,  // measure 38
1000
0100
1000
0000
0001
0100
0001
0000
,  // measure 39
0100
0010
0100
0000
0001
1000
0001
0000
,  // measure 40
0010
0100
0010
0000
0001
1000
0001
0000
,  // measure 41
2100
0001
0010
0001
,  // measure 42
0100
0000
3100
0000
0010
0100
0010
0000
,  // measure 43
0102
1000
0100
0010
,  // measure 44
1000
0000
0013
0000
0010
0100
0010
0000
,  // measure 45
0001
0010
0100
0000
0100
0000
0100
0000
,  // measure 46
0100
0000
0100
1000
0100
0000
0100
1000
,  // measure 47
0100
0000
0100
1000
0100
0000
1000
0010
,  // measure 48
1000
0000
1000
0010
1000
0000
1000
0010
,  // measure 49
1000
1000
0001
0001
,  // measure 50
0100
0010
1000
0001
,  // measure 51
0010
0010
0100
0100
,  // measure 52
0100
0010
0002
2003
,  // measure 53
3010
1010
0100
0101
,  // measure 54
0100
0001
0100
0000
0010
0000
1000
0000
,  // measure 55
0001
1100
0001
1100
,  // measure 56
0001
1000
0001
0000
1000
0000
0010
0000
,  // measure 57
1000
0101
1000
0101
,  // measure 58
0100
0010
0100
0000
0010
0000
1000
0000
,  // measure 59
1000
0011
1000
0011
,  // measure 60
0001
0100
1000
0000
1000
0010
0001
0000
,  // measure 61
1000
0101
1000
0100
,  // measure 62
1000
0110
1001
0100
,  // measure 63
0001
1100
0101
1100
,  // measure 64
1100
0101
0011
0220
,  // measure 65
0330
0000
0000
0000
;
