#TITLE:エブリデイ・ラブリデイ -L.E.D.STYLE MIX-;
#SUBTITLE:;
#ARTIST:Togo-chef feat. Sana;
#TITLETRANSLIT:EVERYDAY LOVELYDAY -L.E.D.STYLE MIX-;
#SUBTITLETRANSLIT:;
#ARTISTTRANSLIT:;
#GENRE:;
#CREDIT:Chewi☆;
#MENUCOLOR:#FFFFFF;
#METERTYPE:DDR X;
#BANNER:EVERYDAY LOVELYDAY -L.E.D.STYLE MIX-.png;
#BACKGROUND:EVERYDAY LOVELYDAY -L.E.D.STYLE MIX--bg.png;
#LYRICSPATH:;
#CDTITLE:./CDTITLES/DanceDanceRevolution skyMIX2 -FREEDOM-.png;
#MUSIC:EVERYDAY LOVELYDAY -L.E.D.STYLE MIX-.mp3;
#OFFSET:-2.238;
#SAMPLESTART:69.987;
#SAMPLELENGTH:15.000;
#SELECTABLE:YES;
#LISTSORT:;
#DISPLAYBPM:134.000;
#BPMS:0.000=134.000;
#STOPS:;
#BGCHANGES:-24.000=X2_Ruby.avi=1.000=0=0=1,
99999=-nosongbg-=1.000=0=0=0 // don't automatically add -songbackground-
;
#ATTACKS:;

//---------------dance-single - Chewi----------------
#NOTES:
     dance-single:
     Chewi:
     Hard:
     9:
     0.371,0.398,0.163,0.154,0.000: // measure 1
0000
0000
0000
0000
,  // measure 2
0000
0000
0000
0000
,  // measure 3
0000
0000
0000
0000
,  // measure 4
0000
0000
0000
0000
,  // measure 5
1000
0100
1000
0000
0001
0100
0001
0000
,  // measure 6
0100
0010
1000
0001
,  // measure 7
1000
0100
1000
0000
0001
0100
0001
0000
,  // measure 8
1000
0001
0010
0100
,  // measure 9
1000
1100
0001
0010
,  // measure 10
0100
0010
0100
0000
0010
0100
0010
0000
,  // measure 11
0001
0101
1000
0010
,  // measure 12
0200
0000
0000
0300
,  // measure 13
0010
0000
1000
0000
0001
0000
0010
0100
,  // measure 14
0010
0000
0001
0000
0100
0000
0010
1000
,  // measure 15
0001
0010
1000
0100
,  // measure 16
1000
0010
0001
0100
,  // measure 17
0010
0000
1000
0000
0001
0010
0100
0000
,  // measure 18
1000
0000
0010
0000
1000
0100
0010
0000
,  // measure 19
0001
0000
1000
0000
0100
0010
0100
0000
,  // measure 20
1000
0000
0001
0000
0100
0010
0100
0000
,  // measure 21
1010
0100
0001
0010
,  // measure 22
0100
0010
0001
0000
0100
0000
0010
0000
,  // measure 23
0100
0010
1000
0000
0001
0000
0010
0000
,  // measure 24
0100
0010
0100
0000
1000
0000
0001
0000
,  // measure 25
1000
0001
0100
0000
1000
0000
0100
0000
,  // measure 26
0010
0001
0100
0000
1000
0000
0010
0000
,  // measure 27
0010
1000
0100
0000
0001
0000
0010
0000
,  // measure 28
0100
0010
0100
0000
1000
0000
0001
0000
,  // measure 29
1000
0001
0100
0000
0100
0000
0010
0000
,  // measure 30
2010
0000
3002
0000
,  // measure 31
0023
0000
0230
0000
,  // measure 32
2300
0000
3200
0000
,  // measure 33
0302
0000
0023
0000
,  // measure 34
2030
0010
0010
0010
,  // measure 35
3002
0100
0100
0100
,  // measure 36
2003
0100
3020
0100
,  // measure 37
2030
0001
0100
3001
,  // measure 38
2002
0000
0000
3003
,  // measure 39
0001
0010
0001
0100
0001
0010
0000
0000
,  // measure 40
1000
0100
1000
0010
1000
0100
0000
0000
,  // measure 41
0010
0100
1000
0001
0100
0010
1000
0001
,  // measure 42
1000
0101
0100
1001
,  // measure 43
0010
0000
0100
1000
0010
0000
0100
0000
,  // measure 44
0001
0000
0100
0001
0010
0000
0100
0000
,  // measure 45
0010
0101
0010
1100
,  // measure 46
0001
1000
0100
0000
1000
0001
0100
0000
,  // measure 47
0010
1000
0100
1000
0010
1000
0000
0000
,  // measure 48
0100
0001
0010
0001
0100
0001
0000
0000
,  // measure 49
1000
0001
0010
0000
0100
1000
0001
0000
,  // measure 50
0101
0011
1010
1100
,  // measure 51
0100
0010
0001
0010
0100
0000
1000
0000
,  // measure 52
1000
0100
0010
0100
1000
0000
0010
0000
,  // measure 53
0100
0001
0100
0000
0010
1000
0010
0000
,  // measure 54
1100
0011
0101
1010
,  // measure 55
1000
0001
0010
0100
,  // measure 56
1000
0010
0001
0100
,  // measure 57
0100
0001
0100
0000
0100
1000
0100
0000
,  // measure 58
1000
0000
1000
0000
0001
0001
0001
0000
,  // measure 59
1000
0010
1000
0000
0001
0010
0001
0000
,  // measure 60
0010
0000
0010
0000
0100
0100
0100
0000
,  // measure 61
0011
0000
0100
0000
0010
1000
0100
0000
,  // measure 62
2200
0000
0000
0000
,  // measure 63
3300
0000
0000
0000
;

//---------------dance-single - Chewi----------------
#NOTES:
     dance-single:
     Chewi:
     Beginner:
     1:
     0.083,0.133,0.043,0.034,0.000: // measure 1
0000
0000
0000
0000
,  // measure 2
0000
0000
0000
0000
,  // measure 3
0000
0000
0000
0000
,  // measure 4
0000
0000
0000
0000
,  // measure 5
1000
0000
0000
0000
,  // measure 6
1000
0000
0000
0000
,  // measure 7
0001
0000
0000
0000
,  // measure 8
0100
0000
0000
0000
,  // measure 9
0010
0000
0000
0000
,  // measure 10
0100
0000
0000
0000
,  // measure 11
0010
0000
0000
0000
,  // measure 12
0100
0000
0000
0000
,  // measure 13
0010
0000
0000
0000
,  // measure 14
0020
0000
0000
0030
,  // measure 15
0010
0000
0000
0000
,  // measure 16
0200
0000
0000
0300
,  // measure 17
0100
0000
0000
0000
,  // measure 18
0001
0000
0000
0000
,  // measure 19
0010
0000
0000
0000
,  // measure 20
0100
0000
0000
0000
,  // measure 21
1000
0000
0000
0000
,  // measure 22
1000
0000
0000
0000
,  // measure 23
0100
0000
0000
0000
,  // measure 24
0010
0000
0000
0000
,  // measure 25
0100
0000
0000
0000
,  // measure 26
0010
0000
0000
0000
,  // measure 27
0010
0000
0000
0000
,  // measure 28
1000
0000
0000
0000
,  // measure 29
0010
0000
0000
0000
,  // measure 30
0200
0000
0000
0300
,  // measure 31
0100
0000
0000
0000
,  // measure 32
0020
0000
0000
0030
,  // measure 33
0010
0000
0000
0000
,  // measure 34
1000
0000
0000
0000
,  // measure 35
0001
0000
0000
0000
,  // measure 36
0010
0000
0000
0000
,  // measure 37
0100
0000
0000
0000
,  // measure 38
0110
0000
0000
0000
,  // measure 39
0010
0000
0000
0000
,  // measure 40
0010
0000
0000
0000
,  // measure 41
0100
0000
0000
0000
,  // measure 42
0010
0000
0000
0000
,  // measure 43
0100
0000
0000
0000
,  // measure 44
0010
0000
0000
0000
,  // measure 45
0100
0000
0000
0000
,  // measure 46
0010
0000
0000
0000
,  // measure 47
0010
0000
0000
0000
,  // measure 48
0010
0000
0000
0000
,  // measure 49
0100
0000
0000
0000
,  // measure 50
0110
0000
0000
0000
,  // measure 51
0010
0000
0000
0000
,  // measure 52
0100
0000
0000
0000
,  // measure 53
0010
0000
0000
0000
,  // measure 54
0100
0000
0000
0000
,  // measure 55
1000
0000
0000
0000
,  // measure 56
0001
0000
0000
0000
,  // measure 57
1001
0000
0000
0000
,  // measure 58
0001
0000
0000
0000
,  // measure 59
1001
0000
0000
0000
,  // measure 60
1000
0000
0000
0000
,  // measure 61
0110
0000
0000
0000
,  // measure 62
0100
0000
0000
0000
,  // measure 63
0100
0000
0000
0000
;

//---------------dance-single - Chewi----------------
#NOTES:
     dance-single:
     Chewi:
     Easy:
     3:
     0.175,0.212,0.043,0.060,0.000: // measure 1
0000
0000
0000
0000
,  // measure 2
0000
0000
0000
0000
,  // measure 3
0000
0000
0000
0000
,  // measure 4
0000
0000
0000
0000
,  // measure 5
1000
0100
1000
0000
,  // measure 6
1000
1000
1000
0000
,  // measure 7
0001
0100
0001
0000
,  // measure 8
0100
0100
0100
0000
,  // measure 9
0010
0000
1000
0000
,  // measure 10
0100
0000
0001
0000
,  // measure 11
0010
0000
0001
0000
,  // measure 12
0100
0000
1000
0000
,  // measure 13
0010
0010
0010
0010
,  // measure 14
0020
0000
0000
0030
,  // measure 15
0100
0100
0100
0100
,  // measure 16
0200
0000
0000
0300
,  // measure 17
1000
0000
0100
0000
,  // measure 18
0001
0000
0010
0000
,  // measure 19
0010
0010
0000
0000
,  // measure 20
0100
0100
0000
0000
,  // measure 21
1000
0000
0100
0000
,  // measure 22
1000
0000
0010
0000
,  // measure 23
0100
0000
0001
0000
,  // measure 24
0010
0000
1000
0000
,  // measure 25
0100
0000
0001
0000
,  // measure 26
0010
0000
0100
0000
,  // measure 27
0010
0000
0001
0000
,  // measure 28
1000
1000
0000
0000
,  // measure 29
0010
0010
0000
0000
,  // measure 30
0200
0000
0000
0300
,  // measure 31
0100
0100
0100
0000
,  // measure 32
0020
0000
0000
0030
,  // measure 33
0010
0010
0010
0000
,  // measure 34
2000
0000
0000
3000
,  // measure 35
0002
0000
0000
0003
,  // measure 36
0010
0000
0010
0000
,  // measure 37
0100
0100
0100
0100
,  // measure 38
0110
0000
0000
0000
,  // measure 39
0010
0001
0100
0000
,  // measure 40
0010
1000
0100
0000
,  // measure 41
0100
0100
0010
0010
,  // measure 42
0010
0000
0000
0000
,  // measure 43
0100
0000
1000
0000
,  // measure 44
0010
0000
0001
0000
,  // measure 45
0100
0000
0001
0000
,  // measure 46
0010
0000
1000
0000
,  // measure 47
0010
1000
0100
0000
,  // measure 48
0010
0001
0100
0000
,  // measure 49
0100
0100
0100
0100
,  // measure 50
0110
0000
0000
0000
,  // measure 51
0010
0000
1000
0000
,  // measure 52
0100
0000
0001
0000
,  // measure 53
0010
0000
0001
0000
,  // measure 54
0100
0000
1000
0000
,  // measure 55
1000
0000
1000
0000
,  // measure 56
0001
0000
0001
0000
,  // measure 57
1001
0000
1000
0000
,  // measure 58
0001
0100
1000
0000
,  // measure 59
1001
0000
0001
0000
,  // measure 60
1000
0100
0001
0000
,  // measure 61
0110
0000
0010
0000
,  // measure 62
0100
0010
0100
0200
,  // measure 63
0300
0000
0000
0000
;

//---------------dance-single - Chewi----------------
#NOTES:
     dance-single:
     Chewi:
     Medium:
     6:
     0.317,0.345,0.128,0.188,0.000: // measure 1
0000
0000
0000
0000
,  // measure 2
0000
0000
0000
0000
,  // measure 3
0000
0000
0000
0000
,  // measure 4
0000
0000
0000
0000
,  // measure 5
2000
3100
0002
0013
,  // measure 6
0100
0000
0100
0000
0100
0010
0100
0000
,  // measure 7
0020
0031
0200
1300
,  // measure 8
0010
0000
0010
0000
0100
0010
0100
0000
,  // measure 9
0010
1000
0100
1100
,  // measure 10
0010
0001
0010
0001
,  // measure 11
0010
0001
0100
0101
,  // measure 12
0010
1000
0010
1000
,  // measure 13
0002
0000
0100
0000
,  // measure 14
2003
0000
0010
0000
,  // measure 15
3002
0000
0010
0000
,  // measure 16
2003
0000
0100
0000
,  // measure 17
3001
0100
0010
1000
,  // measure 18
0001
0010
0100
1000
,  // measure 19
0001
1000
0001
0000
0000
0000
0000
0000
,  // measure 20
0100
0010
0100
0000
0000
0000
0000
0000
,  // measure 21
0010
1000
0010
0001
,  // measure 22
0020
1000
0100
1030
,  // measure 23
2000
0001
0000
3001
,  // measure 24
0002
0100
1000
0013
,  // measure 25
0020
0100
0000
0130
,  // measure 26
0100
0001
0010
1000
,  // measure 27
0100
1000
0010
0001
,  // measure 28
0100
0010
0100
1001
,  // measure 29
0010
0100
0010
1001
,  // measure 30
2000
0000
0010
3010
,  // measure 31
0002
0000
0100
0103
,  // measure 32
2000
0000
0010
3010
,  // measure 33
0002
0000
0010
0013
,  // measure 34
0001
1000
0001
1000
,  // measure 35
1000
0001
1000
0001
,  // measure 36
0100
0010
0100
0000
0010
0100
0010
0000
,  // measure 37
0010
1000
0100
0001
,  // measure 38
0220
0000
0000
0330
,  // measure 39
0001
0000
0010
0000
0100
0100
0000
0000
,  // measure 40
1000
0000
0100
0000
0010
0010
0000
0000
,  // measure 41
0001
1000
0010
0100
,  // measure 42
0101
0010
1100
0010
,  // measure 43
1000
0000
0100
0000
0010
0001
0100
0000
,  // measure 44
0001
0000
0100
0000
0010
1000
0100
0000
,  // measure 45
1000
0101
0001
1100
,  // measure 46
0010
1000
0100
0001
,  // measure 47
0010
0000
0100
0000
0010
0001
0000
0000
,  // measure 48
0001
0000
0100
0000
1000
0010
0000
0000
,  // measure 49
0010
1000
0100
0001
,  // measure 50
0010
0100
0010
0000
0100
0000
0110
0000
,  // measure 51
0010
0001
0010
0100
,  // measure 52
1000
0100
1000
0010
,  // measure 53
0101
0010
1100
0010
,  // measure 54
0100
0001
0100
1000
,  // measure 55
0010
0000
0010
0000
0100
0010
0100
0000
,  // measure 56
0100
0000
0100
0000
0010
0100
0010
0000
,  // measure 57
2000
0001
0100
3001
,  // measure 58
0001
0010
0100
1000
,  // measure 59
0002
0100
1000
0103
,  // measure 60
1000
0010
0100
0001
,  // measure 61
0100
0110
0110
0010
,  // measure 62
1020
0000
0000
0000
1000
1000
2000
0000
,  // measure 63
3030
0000
0000
0000
;
