#TITLE:ENDING1 (MUSIC LIST);
#SUBTITLE:;
#ARTIST:DDRMAX2;
#TITLETRANSLIT:;
#SUBTITLETRANSLIT:;
#ARTISTTRANSLIT:;
#GENRE:;
#CREDIT:Chewi☆;
#MENUCOLOR:;
#METERTYPE:DDR;
#BANNER:ENDING1 (MUSIC LIST).png;
#BACKGROUND:ENDING1 (MUSIC LIST)-bg.png;
#LYRICSPATH:;
#CDTITLE:;
#MUSIC:ENDING1 (MUSIC LIST).mp3;
#OFFSET:-0.394;
#SAMPLESTART:20.536;
#SAMPLELENGTH:15.000;
#SELECTABLE:YES;
#LISTSORT:;
#BPMS:0.000=143.000;
#STOPS:;
#BGCHANGES:;
#ATTACKS:;

//---------------dance-single - Chewi----------------
#NOTES:
     dance-single:
     Chewi:
     Hard:
     8:
     0.341,0.491,0.273,0.068,0.000:
0000
0000
0000
0000
,
0000
0000
0000
0000
,
0000
0000
0000
0000
,
0000
0000
0000
0000
,
1100
0000
0001
0000
0001
0100
0001
0000
,
0101
0000
1000
0000
1000
0100
1000
0000
,
1001
0000
0101
0000
0100
0010
1000
0000
,
1010
0000
1001
0000
0001
0010
0001
0000
,
0002
0000
0000
0000
,
0000
0000
0000
0000
,
2003
0000
0000
0000
,
0000
0000
0000
0000
,
3010
0000
0100
0000
0010
1000
0100
0010
,
0001
0000
0100
0000
0010
0100
0001
0010
,
0100
1000
0100
0000
1000
0001
1000
0000
,
0001
0100
0001
0000
0100
0010
0100
0000
,
0010
1000
0000
1100
0000
0010
0000
0011
,
0000
0001
0000
1001
0000
1000
0000
1001
,
1000
1000
0010
0010
0100
0100
0001
0001
,
0100
0010
1000
0001
0010
0100
1000
0010
,
1010
0000
0001
0000
1000
0010
1000
0000
,
1010
0000
0001
0000
0001
0010
0001
0000
,
1001
0000
1010
0000
0010
0100
0001
0000
,
0101
0000
1001
0000
0100
1000
0100
0000
,
0020
0000
0000
0000
,
0000
0000
0000
0000
,
0032
0000
0000
0000
,
0000
0000
0000
0000
,
1003
0000
0010
0000
0100
0001
0010
0100
,
1000
0000
1000
0000
0100
0010
0001
0010
,
0100
0000
1000
0000
1000
0100
0010
0001
,
1000
1000
0001
0001
0100
0100
0010
0010
,
0010
0000
0000
0000
;

//---------------dance-single - Chewi----------------
#NOTES:
     dance-single:
     Chewi:
     Medium:
     4:
     0.248,0.327,0.051,0.034,0.000:
0000
0000
0000
0000
,
0000
0000
0000
0000
,
0000
0000
0000
0000
,
0000
0000
0000
0000
,
1000
0100
0001
0100
,
1000
0010
0001
0010
,
1000
0100
0100
0001
,
0001
0100
0100
1000
,
1000
0010
0100
0000
,
0001
0010
0100
0000
,
1000
0100
0001
0010
,
1000
0010
0001
0100
,
1000
0010
0100
0001
,
0001
0100
0010
1000
,
1000
0001
0010
0100
,
1000
0001
0100
0010
,
0000
0010
0000
0010
0000
0010
0000
0010
,
0000
1000
0000
0001
0000
1000
0000
0001
,
0000
0100
0000
0100
0000
0100
0000
0100
,
0000
0001
0000
1000
0000
0001
0000
1000
,
0001
0010
0100
0100
,
1000
0010
0100
0100
,
0001
0100
1000
0010
,
1000
0100
0001
0010
,
0002
0000
0000
0000
,
0000
0000
0000
0000
,
2003
0000
0000
0000
,
0000
0000
0000
0000
,
3010
0001
0100
1000
,
0010
0001
0100
1000
,
0010
0100
0001
0101
,
0010
0100
1000
1100
,
0101
0000
0000
0000
;

//---------------dance-single - Chewi----------------
#NOTES:
     dance-single:
     Chewi:
     Beginner:
     1:
     0.080,0.136,0.000,0.136,0.000: // measure 1
0000
0000
0000
0000
,  // measure 2
0000
0000
0000
0000
,  // measure 3
0000
0000
0000
0000
,  // measure 4
0000
0000
0000
0000
,  // measure 5
1000
0000
0000
0000
,  // measure 6
0001
0000
0000
0000
,  // measure 7
0001
0000
0000
0000
,  // measure 8
1000
0000
0000
0000
,  // measure 9
0020
0000
0000
0000
,  // measure 10
0000
0000
0000
0000
,  // measure 11
0230
0000
0000
0000
,  // measure 12
0000
0000
0000
0000
,  // measure 13
0301
0000
0000
0000
,  // measure 14
1000
0000
0000
0000
,  // measure 15
0100
0000
0000
0000
,  // measure 16
0010
0000
0000
0000
,  // measure 17
0002
0000
0000
0000
,  // measure 18
2003
0000
0000
0000
,  // measure 19
3020
0000
0000
0000
,  // measure 20
0230
0000
0000
0000
,  // measure 21
0310
0000
0000
0000
,  // measure 22
0010
0000
0000
0000
,  // measure 23
1000
0000
0000
0000
,  // measure 24
1000
0000
0000
0000
,  // measure 25
0200
0000
0000
0000
,  // measure 26
0000
0000
0000
0000
,  // measure 27
0320
0000
0000
0000
,  // measure 28
0000
0000
0000
0000
,  // measure 29
0031
0000
0000
0000
,  // measure 30
1000
0000
0000
0000
,  // measure 31
0010
0000
0000
0000
,  // measure 32
0100
0000
0000
0000
,  // measure 33
0100
0000
0000
0000
;

//---------------dance-single - Chewi----------------
#NOTES:
     dance-single:
     Chewi:
     Easy:
     3:
     0.178,0.245,0.000,0.068,0.000:
0000
0000
0000
0000
,
0000
0000
0000
0000
,
0000
0000
0000
0000
,
0000
0000
0000
0000
,
1000
0000
0100
0000
,
0001
0000
0010
0000
,
0001
0000
0100
0000
,
1000
0000
0010
0000
,
0020
0000
0000
0000
,
0000
0000
0000
0000
,
0230
0000
0000
0000
,
0000
0000
0000
0000
,
0301
1000
0001
0000
,
1000
0001
1000
0000
,
0100
0010
0100
0000
,
0010
0100
0010
0000
,
0000
0001
0000
0001
0000
0001
0000
0001
,
0000
1000
0000
1000
0000
1000
0000
1000
,
0000
0010
0000
0010
0000
0010
0000
0010
,
0000
0100
0000
0100
0000
0100
0000
0100
,
0010
1000
0100
0001
,
0010
1000
0100
0000
,
1000
0010
0001
0100
,
1000
0010
0001
0000
,
0200
0000
0000
0000
,
0000
0000
0000
0000
,
0320
0000
0000
0000
,
0000
0000
0000
0000
,
0031
1000
0100
0000
,
1000
0001
0010
0000
,
0010
0100
1000
0010
,
0100
0001
0010
0100
,
0100
0000
0000
0000
;
