#TITLE:EDDIES ARE BACK;
#SUBTITLE:;
#ARTIST:MR. ED JUMPS THE GUN;
#TITLETRANSLIT:;
#SUBTITLETRANSLIT:;
#ARTISTTRANSLIT:;
#GENRE:;
#CREDIT:Chewi☆;
#MENUCOLOR:#FFFFFF;
#METERTYPE:DDR X;
#BANNER:EDDIES ARE BACK.png;
#BACKGROUND:EDDIES ARE BACK-bg.png;
#LYRICSPATH:;
#CDTITLE:./CDTITLES/DanceDanceRevolution skyMIX3 -breeze-.png;
#MUSIC:EDDIES ARE BACK.mp3;
#OFFSET:-0.605;
#SAMPLESTART:54.047;
#SAMPLELENGTH:15.000;
#SELECTABLE:YES;
#LISTSORT:;
#DISPLAYBPM:90.000;
#BPMS:0.000=89.800;
#STOPS:;
#BGCHANGES:;
#ATTACKS:;

//---------------dance-single - Chewi----------------
#NOTES:
     dance-single:
     Chewi:
     Beginner:
     1:
     0.100,0.138,0.049,0.000,0.000: // measure 1
0000
0000
0000
0000
,  // measure 2
0000
0000
0000
0000
,  // measure 3
0000
0000
0000
0000
,  // measure 4
0000
0000
0000
0000
,  // measure 5
1000
0000
0100
0000
,  // measure 6
0001
0000
0010
0000
,  // measure 7
0001
0000
0100
0000
,  // measure 8
1000
0000
0010
0000
,  // measure 9
0100
0000
0010
0000
,  // measure 10
0010
0000
0100
0000
,  // measure 11
0001
0000
0100
0000
,  // measure 12
1000
0000
0000
0000
,  // measure 13
1000
0000
1000
0000
,  // measure 14
0001
0000
0001
0000
,  // measure 15
0100
0000
0010
0000
,  // measure 16
0100
0000
0010
0000
,  // measure 17
1000
0000
1000
0000
,  // measure 18
0001
0000
0001
0000
,  // measure 19
0010
0000
0100
0000
,  // measure 20
0010
0000
0010
0000
,  // measure 21
1001
0000
1000
1000
,  // measure 22
1000
0000
0001
0000
,  // measure 23
0110
0000
0010
0010
,  // measure 24
0010
0000
0100
0000
,  // measure 25
1001
0000
1000
1000
,  // measure 26
1000
0000
0001
0000
,  // measure 27
1001
0000
0001
0001
,  // measure 28
0001
0000
0010
0010
,  // measure 29
0010
0000
0000
0000
;

//---------------dance-single - Chewi----------------
#NOTES:
     dance-single:
     Chewi:
     Easy:
     3:
     0.178,0.173,0.049,0.012,0.000: // measure 1
0000
0000
0000
0000
,  // measure 2
0000
0000
0000
0000
,  // measure 3
0000
0000
0000
0000
,  // measure 4
0000
0000
0000
0000
,  // measure 5
1000
0010
1000
0010
,  // measure 6
0001
0010
0001
0010
,  // measure 7
0001
0100
0001
0100
,  // measure 8
1000
0100
1000
0100
,  // measure 9
1000
0010
1000
0100
,  // measure 10
0001
0010
0001
0100
,  // measure 11
0010
0100
0001
1000
,  // measure 12
0100
0100
0000
0000
0000
0000
0000
0000
,  // measure 13
0001
0010
0100
1000
,  // measure 14
0100
0010
0001
0010
,  // measure 15
0100
0010
1000
0001
,  // measure 16
0010
0100
0001
1000
,  // measure 17
0100
0010
1000
0001
,  // measure 18
1000
0100
0001
0100
,  // measure 19
0010
0100
0010
0001
,  // measure 20
0200
0000
0300
0000
0100
0100
0100
0000
,  // measure 21
0010
0110
0010
0010
,  // measure 22
1000
0100
0001
0010
,  // measure 23
1000
1001
0001
1000
,  // measure 24
0010
0100
1000
0010
,  // measure 25
0100
0110
0010
1000
,  // measure 26
0100
0001
0010
1000
,  // measure 27
0010
0110
0100
0010
,  // measure 28
1000
0100
0001
0010
,  // measure 29
0100
0100
0000
0000
0000
0000
0000
0000
;

//---------------dance-single - Chewi----------------
#NOTES:
     dance-single:
     Chewi:
     Medium:
     5:
     0.206,0.225,0.099,0.000,0.000: // measure 1
0000
0000
0000
0000
,  // measure 2
0000
0000
0000
0000
,  // measure 3
0000
0000
0000
0000
,  // measure 4
0000
0000
0000
0000
,  // measure 5
1000
0100
0010
1000
,  // measure 6
0100
0001
0100
1000
,  // measure 7
0001
0010
0100
0001
,  // measure 8
0010
1000
0010
0001
,  // measure 9
1000
1000
1000
0000
0100
0000
0110
0000
,  // measure 10
0010
0010
0010
0000
0001
0000
0011
0000
,  // measure 11
0001
0000
0100
0000
1000
0010
0001
0000
,  // measure 12
1000
0001
0000
0000
0000
0000
0000
0000
,  // measure 13
0001
0000
0010
0000
0100
0100
0100
0000
,  // measure 14
1000
0000
0100
0000
0010
0010
0010
0000
,  // measure 15
0001
0100
0010
0001
,  // measure 16
1000
0001
0100
0010
,  // measure 17
0100
0100
0100
0000
0010
0000
1001
0000
,  // measure 18
1000
1000
1000
0000
0001
0000
0101
0000
,  // measure 19
0100
0010
1000
0001
,  // measure 20
0010
0100
0010
0000
0100
0000
0100
0000
,  // measure 21
0010
0000
0101
0000
0100
1000
0010
0000
,  // measure 22
0001
0100
0001
0010
,  // measure 23
1000
0000
1100
0000
0100
1000
0010
0000
,  // measure 24
0001
0100
0010
1000
,  // measure 25
0001
0000
1001
0000
1000
0100
0010
0000
,  // measure 26
0001
0010
1000
0100
,  // measure 27
0010
0000
0110
0000
0010
0100
1000
0000
,  // measure 28
0000
0100
0100
0100
0100
0000
0000
0010
,  // measure 29
0001
1000
0000
0000
0000
0000
0000
0000
;

//---------------dance-single - Chewi----------------
#NOTES:
     dance-single:
     Chewi:
     Hard:
     8:
     0.334,0.312,0.074,0.000,0.000: // measure 1
0000
0000
0000
0000
,  // measure 2
0000
0000
0000
0000
,  // measure 3
0000
0000
0000
0000
,  // measure 4
0000
0000
0000
0000
,  // measure 5
1100
0001
0010
0100
1000
0100
0010
0001
,  // measure 6
1000
0001
0100
0010
0100
0010
1000
0001
,  // measure 7
1000
0100
0001
0010
1000
0100
0001
0100
,  // measure 8
1000
0010
0001
0100
1000
0010
0001
0010
,  // measure 9
1000
0001
0100
0010
1000
0001
0010
0100
,  // measure 10
1000
0100
0010
0001
1000
0100
0010
0001
,  // measure 11
1000
0010
0100
0001
1000
0010
0100
0001
,  // measure 12
0010
0001
0100
0000
0100
1000
0010
0000
,  // measure 13
1100
0010
0001
0010
0100
0010
0001
0010
,  // measure 14
0100
1000
0100
0001
0100
1000
0100
0001
,  // measure 15
0100
1000
0010
1000
0100
1000
0010
1000
,  // measure 16
0010
0001
0010
1000
0010
0001
0010
1000
,  // measure 17
0001
0010
0100
1000
0001
0010
0100
1000
,  // measure 18
0010
0100
0010
0100
0010
0001
0010
0001
,  // measure 19
1000
0100
0010
0001
1000
0010
0100
0001
,  // measure 20
0100
0010
1000
0000
0010
0001
0100
0000
,  // measure 21
0100
0010
0011
0000
0001
0010
0100
1000
,  // measure 22
0001
0100
1000
1000
0010
0100
0001
0100
,  // measure 23
0010
1000
1001
0000
0001
0010
0100
1000
,  // measure 24
0010
1000
0100
0010
0001
0100
0001
0010
,  // measure 25
0100
0010
0110
0000
0010
0001
0010
0100
,  // measure 26
1000
0010
0100
0001
0100
0010
1000
0001
,  // measure 27
0010
0100
0011
0000
0001
0010
0100
0000
,  // measure 28
0000
1000
0100
0010
0001
1000
0001
0010
,  // measure 29
0010
0010
0000
0000
0000
0000
0000
0000
;
