#TITLE:E.T.;
#SUBTITLE:;
#ARTIST:Katy Perry feat. Kanye West;
#TITLETRANSLIT:;
#SUBTITLETRANSLIT:;
#ARTISTTRANSLIT:;
#GENRE:;
#CREDIT:Chewi☆;
#MENUCOLOR:#FFFF00;
#METERTYPE:DDR X;
#BANNER:E.T..png;
#BACKGROUND:E.T.-bg.png;
#LYRICSPATH:;
#CDTITLE:;
#MUSIC:E.T..mp3;
#OFFSET:-0.525;
#SAMPLESTART:63.889;
#SAMPLELENGTH:15.000;
#SELECTABLE:YES;
#LISTSORT:;
#DISPLAYBPM:76.000;
#BPMS:0.000=75.760;
#STOPS:;
#BGCHANGES:;
#ATTACKS:;

//---------------dance-single - Chewi----------------
#NOTES:
     dance-single:
     Chewi:
     Beginner:
     1:
     0.057,0.078,0.019,0.088,0.000:
0000
0000
0000
0000
,
0000
0000
0000
0000
,
0000
0000
0000
0000
,
0000
0000
0000
0000
,
1000
0000
0000
0000
,
0001
0000
0000
0000
,
1000
0000
0000
0000
,
0001
0000
0000
0000
,
0020
0000
0000
0030
,
0010
0000
0000
0000
,
0200
0000
0000
0300
,
0100
0000
0000
0000
,
1000
0000
0020
0000
,
0001
0000
0000
0000
,
0100
0000
0000
0000
,
0010
0000
0000
0000
,
2000
0000
0000
3000
,
1000
0000
0000
0000
,
0002
0000
0000
0003
,
0001
0000
0000
0000
,
0020
0000
0000
0030
,
0100
0000
0000
0000
,
2000
0000
0000
3000
,
0001
0000
0000
0000
,
0200
0000
0000
0300
,
0010
0000
0000
0000
,
0020
0000
0000
0030
,
0100
0000
0000
0000
,
1001
0000
0000
0000
,
1000
0000
0000
0000
,
0110
0000
0000
0000
,
0000
0000
0001
0001
,
0001
0000
0000
0000
;

//---------------dance-single - Chewi----------------
#NOTES:
     dance-single:
     Chewi:
     Easy:
     2:
     0.128,0.203,0.058,0.146,0.000:
0000
0000
0000
0000
,
0000
0000
0000
0000
,
0000
0000
0000
0000
,
0000
0000
0000
0000
,
1000
0000
0100
0000
,
0010
0000
0001
0000
,
0001
0000
0010
0000
,
0100
0000
1000
0000
,
1000
1000
2000
3000
,
0001
0000
1001
0000
,
0001
0001
0002
0003
,
1000
0000
1002
0000
,
0100
0000
1000
0000
,
0010
0000
0001
0000
,
0100
0000
0001
0000
,
0010
0000
1000
0000
,
2000
0000
3100
0000
,
0002
0000
0013
0000
,
0002
0000
0103
0000
,
2000
0000
3010
0010
,
0110
0000
1000
0001
,
0002
0023
0230
2300
,
3100
0110
0000
0020
,
0020
0032
0203
2300
,
3010
0110
0000
0000
,
0100
0000
1000
0001
,
1000
0000
0010
0001
,
1000
0000
0010
1000
,
0001
0000
1000
0000
,
1000
1000
1000
1000
,
1000
0000
0100
0000
,
0001
0001
0001
0001
,
0001
0000
0000
0000
;

//---------------dance-single - Chewi----------------
#NOTES:
     dance-single:
     Chewi:
     Medium:
     5:
     0.188,0.187,0.146,0.068,0.000:
0000
0000
0000
0000
,
0000
0000
0000
0000
,
0000
0000
0000
0000
,
0000
0000
0000
0000
,
1000
0000
0001
0000
0100
0010
0100
0000
,
1000
0000
0001
0000
0010
0100
0010
0000
,
0001
0000
0010
0000
1000
0010
1000
0000
,
1000
0220
0000
0330
,
0100
0100
0020
0130
,
0010
1000
0100
0001
,
0010
0100
0200
0310
,
0001
0100
1000
0010
,
0101
0000
1000
0000
0000
1000
1000
0000
,
0010
1000
0001
0010
,
1100
0000
0100
0000
0000
0010
0010
0000
,
0001
1000
0010
0100
,
0102
0000
0010
0103
,
2100
0000
0010
3100
,
1002
0000
1000
0013
,
0110
1000
0100
0001
,
0010
0000
0010
0000
0000
0010
0010
0000
,
0100
0010
0001
0100
,
0010
0000
0100
0000
0010
0010
0010
0000
,
1000
0010
0100
0001
,
1000
1001
0100
1000
,
0010
1100
0100
1000
,
0010
0101
1000
0100
,
0010
1100
0001
0010
,
0100
0110
0001
0100
,
0010
1010
0100
0001
,
0010
0101
0100
0010
,
1000
0000
1001
0000
0010
0000
0010
0001
,
0010
0000
0000
0000
;

//---------------dance-single - Chewi----------------
#NOTES:
     dance-single:
     Chewi:
     Hard:
     9:
     0.270,0.280,0.127,0.039,0.015:
0000
0000
0000
0000
,
0000
0000
0000
0000
,
0000
0000
0000
0000
,
0000
0000
0000
0000
,
1000
0010
0100
0000
0001
1000
0001
0000
,
0001
0010
0100
0000
1000
0001
1000
0000
,
0010
0100
0001
0000
0001
1000
1000
0000
,
0100
0010
0022
0000
0000
0000
0033
0000
,
1010
0000
0101
0000
0100
0100
0010
0000
,
0010
1000
0100
1000
0010
0001
0100
1000
,
0110
0000
1001
0000
0010
0010
0100
0000
,
0010
0001
0100
0001
0010
1000
0100
0001
,
1000
0100
1100
0000
0001
0100
0010
0000
,
0100
0100
0010
0010
1000
0001
0010
0000
,
0100
0010
0011
0000
0001
1000
0010
0000
,
0100
0100
0010
0010
1000
0001
0010
0000
,
2100
0000
0010
0000
0100
0100
3100
0000
,
0102
0000
0010
0000
0100
1000
0103
0000
,
1000
0100
0001
0010
0001
0100
1000
0010
,
1000
0010
0001
0010
1000
0100
0001
0100
,
0101
0000
0000
0000
1010
0000
0000
0000
0010
0010
0010
0000
0100
0000
0000
0000
,
0010
1000
0001
0000
0010
0001
1000
0000
,
1100
0000
0000
0000
0001
0000
0000
0000
0010
0010
0010
0000
0100
0000
0000
0000
,
0010
0001
0100
0000
0010
1000
0100
0000
,
1001
0100
0010
0000
0010
0001
0100
1000
,
0010
0000
0100
0000
1000
1000
0100
0001
,
1000
0000
0010
0010
0100
0001
0010
1000
,
0100
0000
0010
0000
0001
1000
0010
0100
,
0001
0100
0010
0000
0001
0100
0010
0000
,
1000
0001
0010
0000
0100
0010
0100
1000
,
0010
0100
0001
0000
0100
0010
1000
0000
,
0001
0000
1000
0000
0100
0000
0010
0000
0001
0000
0010
0000
0100
0000
1000
0010
;

//---------------dance-double - Chewi----------------
#NOTES:
     dance-double:
     Chewi:
     Easy:
     2:
     0.082,0.109,0.019,0.029,0.000: // measure 1
00000000
00000000
00000000
00000000
,  // measure 2
00000000
00000000
00000000
00000000
,  // measure 3
00000000
00000000
00000000
00000000
,  // measure 4
00000000
00000000
00000000
00000000
,  // measure 5
10000000
00000000
01000000
00000000
,  // measure 6
00010000
00000000
00001000
00000000
,  // measure 7
00010000
00000000
00001000
00000000
,  // measure 8
00000100
00000000
00000001
00000000
,  // measure 9
00000010
00000000
00000010
00000000
,  // measure 10
00001000
00000000
00001000
00000000
,  // measure 11
00010000
00000000
00001000
00000000
,  // measure 12
00010000
00000000
01000000
00000000
,  // measure 13
10000000
00000000
00100000
00000000
,  // measure 14
01000000
00000000
00010000
00000000
,  // measure 15
00001000
00000000
00000100
00000000
,  // measure 16
00000010
00000000
00001000
00000000
,  // measure 17
00011000
00000000
00001000
00000000
,  // measure 18
00011000
00000000
00010000
00000000
,  // measure 19
02000000
00000000
00000000
00000000
,  // measure 20
00200000
00000000
00000000
03300000
,  // measure 21
00100000
00000000
00010000
00000000
,  // measure 22
00001000
00000000
00010000
00000000
,  // measure 23
00001000
00000000
00000010
00000000
,  // measure 24
00000001
00000000
00000100
00000000
,  // measure 25
00001000
00000000
00010000
00000000
,  // measure 26
00001000
00000000
01000000
00000000
,  // measure 27
00100000
00000000
00010000
00000000
,  // measure 28
00100000
00000000
10000000
00000000
,  // measure 29
10000000
00000000
01000000
00000000
,  // measure 30
00010000
00000000
00001000
00000000
,  // measure 31
00010000
00000000
00001000
00000000
,  // measure 32
00000010
00000000
00000002
00000000
,  // measure 33
00000003
00000000
00000000
00000000
;

//---------------dance-double - Chewi----------------
#NOTES:
     dance-double:
     Chewi:
     Medium:
     5:
     0.178,0.171,0.049,0.058,0.000: // measure 1
00000000
00000000
00000000
00000000
,  // measure 2
00000000
00000000
00000000
00000000
,  // measure 3
00000000
00000000
00000000
00000000
,  // measure 4
00000000
00000000
00000000
00000000
,  // measure 5
01000000
00010000
00100000
00001000
,  // measure 6
00010000
00001000
00000010
00001000
,  // measure 7
00000010
00000100
00000001
00001000
,  // measure 8
00000100
00022000
00000000
00033000
,  // measure 9
00001000
00000000
00010000
00000000
00001000
00010000
00010000
00000000
,  // measure 10
01000000
00100000
10000000
00010000
,  // measure 11
00100000
00000000
01000000
00000000
00100000
01000000
01000000
00000000
,  // measure 12
01000000
00010000
00100000
00001000
,  // measure 13
00000010
00000000
00000001
00000000
00000100
00000100
00000100
00000000
,  // measure 14
00000010
00000100
00000001
00000100
,  // measure 15
00000010
00000000
00001000
00000000
00000100
00010000
00001000
00000000
,  // measure 16
00010000
00010000
00001000
00001000
,  // measure 17
00210000
00000000
01300000
00000000
,  // measure 18
10200000
00000000
01300000
00000000
,  // measure 19
21000000
00000000
30010000
00100000
,  // measure 20
00102000
00000000
00013000
00001000
,  // measure 21
00000010
00000000
00000100
00000000
00000100
00000010
00000010
00000000
,  // measure 22
00001000
00000100
00000010
00000001
,  // measure 23
00000100
00000000
00001000
00000000
00010000
00001000
00010000
00000000
,  // measure 24
00001000
00100000
00010000
01000000
,  // measure 25
00100000
00000000
00100000
00000000
10000000
00000000
00010000
10000000
,  // measure 26
00010000
00000000
00100000
00000000
01000000
00000000
00100000
00010000
,  // measure 27
00100000
00000000
01000000
00000000
10000000
00000000
00100000
01000000
,  // measure 28
00010000
00000000
00001000
00000000
00000100
00001000
00000100
00000000
,  // measure 29
00001000
00000010
00000100
00000001
,  // measure 30
00000100
00000010
00001000
00000001
,  // measure 31
00000010
00000100
00001000
00100000
,  // measure 32
00010000
00000000
01000000
00000000
00100000
01000000
00100000
10000000
,  // measure 33
00100000
00000000
00000000
00000000
;

//---------------dance-double - Chewi----------------
#NOTES:
     dance-double:
     Chewi:
     Hard:
     9:
     0.253,0.280,0.039,0.039,0.015: // measure 1
00000000
00000000
00000000
00000000
,  // measure 2
00000000
00000000
00000000
00000000
,  // measure 3
00000000
00000000
00000000
00000000
,  // measure 4
00000000
00000000
00000000
00000000
,  // measure 5
10000000
10000000
00010000
00000000
00100000
00001000
00010000
00000000
,  // measure 6
00010000
00010000
00000100
00000000
00000100
00000001
00000010
00000000
,  // measure 7
00001000
00000010
00000100
00000000
00000010
00001000
00010000
00000000
,  // measure 8
00001000
00010000
00001000
00000000
00220000
00000000
00330000
00000000
,  // measure 9
00001000
00000000
00010000
00000000
01000000
00100000
10000000
00000000
,  // measure 10
01000000
01000000
01000000
00000000
00100000
00100000
00100000
00000000
,  // measure 11
00100000
00000000
00010000
00000000
01000000
00010000
00001000
00000000
,  // measure 12
00010000
00001000
00000010
00000000
00000100
00000001
00001000
00000000
,  // measure 13
00000010
00000000
00000001
00000000
00000010
00000100
00001000
00000000
,  // measure 14
00001000
00000000
00010000
00000000
01000000
10000000
00100000
00000000
,  // measure 15
01000000
00000000
00010000
00000000
00100000
01000000
00100000
00000000
,  // measure 16
00010000
00100000
00001000
00000000
00010000
00000100
00001000
00000001
,  // measure 17
00000200
00000000
00000010
00000000
00000001
00000001
00000301
00000000
,  // measure 18
00000002
00000000
00000010
00000000
00001000
00001000
00001003
00000000
,  // measure 19
00000010
00001000
00000100
00001000
00000010
00001000
00010000
00001000
,  // measure 20
00010000
00001000
00100000
00010000
01000000
10000000
00100000
01000000
,  // measure 21
01010000
00000000
00000000
00000000
00110000
00000000
00000000
00000000
00100000
00100000
00100000
00000000
01000000
00000000
00000000
00000000
,  // measure 22
01000000
10000000
01000000
00010000
00100000
01000000
00010000
00100000
,  // measure 23
00101000
00000000
00000000
00000000
00001000
00000000
00000000
00000000
00010000
00001000
00010000
00000000
00001000
00000000
00000000
00000000
,  // measure 24
00001000
00000010
00000100
00000000
00000001
00000010
00000100
00000000
,  // measure 25
00001000
00000100
00000010
00000001
00001000
00001000
00000001
00000001
,  // measure 26
00000100
00000000
00000010
00000000
00000100
00000010
00001000
00000100
,  // measure 27
00010000
00000000
00001000
00000000
00001000
00010000
01000000
10000000
,  // measure 28
00100000
00000000
00010000
00100000
10000000
00010000
00100000
01000000
,  // measure 29
10000000
01000000
00100000
00000000
00010000
10000000
00100000
01000000
,  // measure 30
00010000
00100000
00001000
00000000
00010000
00001000
00010000
00000100
,  // measure 31
00001000
00000001
00000100
00000000
00000010
00001000
00000001
00000000
,  // measure 32
00000010
00000000
00000010
00000000
00000100
00000000
00000100
00000000
00000010
00000000
00000001
00000000
00000100
00000000
00000010
00001000
;
