#VERSION:0.83;
#TITLE:Drum Machine (feat. Skrillex);
#SUBTITLE:;
#ARTIST:Big Grams;
#TITLETRANSLIT:;
#SUBTITLETRANSLIT:;
#ARTISTTRANSLIT:;
#GENRE:Trap;
#ORIGIN:;
#CREDIT:chewi;
#BANNER:Drum Machine (feat. Skrillex).png;
#BACKGROUND:Drum Machine (feat. Skrillex)-bg.png;
#PREVIEWVID:;
#JACKET:Drum Machine (feat. Skrillex)-jacket.png;
#CDIMAGE:;
#DISCIMAGE:;
#LYRICSPATH:;
#CDTITLE:cdtitle.png;
#MUSIC:Drum Machine (feat. Skrillex).ogg;
#OFFSET:-0.762000;
#SAMPLESTART:55.619999;
#SAMPLELENGTH:15.000000;
#SELECTABLE:YES;
#DISPLAYBPM:70.000000:560.000000;
#BPMS:0.000=140.000,
32.000=70.000,
48.000=140.000,
64.000=70.000,
80.000=140.000,
88.000=280.000,
96.000=140.000,
99.000=280.000,
163.000=70.000,
179.000=140.000,
195.000=70.000,
211.000=140.000,
219.000=280.000,
227.000=140.000,
233.000=280.000,
240.000=560.000,
246.000=140.000,
249.000=280.000,
256.000=560.000,
262.000=140.000,
265.000=280.000,
272.000=560.000,
278.000=140.000,
281.000=280.000,
288.000=560.000,
294.000=140.000,
297.000=70.000,
303.500=140.000,
311.500=280.000,
319.500=560.000,
335.500=70.000;
#STOPS:98.000=0.429,
229.000=0.429;
#DELAYS:;
#WARPS:;
#TIMESIGNATURES:0.000=4=4;
#TICKCOUNTS:0.000=4;
#COMBOS:0.000=1;
#SPEEDS:0.000=1.000=0.000=0;
#SCROLLS:0.000=1.000;
#FAKES:;
#LABELS:0.000=Song Start;
#BGCHANGES:;
#KEYSOUNDS:;
#ATTACKS:
;

//---------------dance-single - ----------------
#NOTEDATA:;
#CHARTNAME:;
#STEPSTYPE:dance-single;
#DESCRIPTION:;
#CHARTSTYLE:;
#DIFFICULTY:Beginner;
#METER:3;
#RADARVALUES:0.095463,0.238505,0.106634,0.063980,0.000000,94.000000,79.000000,15.000000,9.000000,0.000000,0.000000,0.000000,0.000000,0.000000,0.095463,0.238505,0.106634,0.063980,0.000000,94.000000,79.000000,15.000000,9.000000,0.000000,0.000000,0.000000,0.000000,0.000000;
#CREDIT:;
#DISPLAYBPM:140.000000;
#NOTES:
0000
0000
0000
0000
,
0000
0000
0000
0000
,
0000
0000
0000
0000
,
0000
0000
0000
0000
,
1000
0000
1000
0000
,
0001
0000
0001
0000
,
0100
0000
0100
0000
,
0010
0000
0010
0000
,
0110
0000
0000
0000
,
1001
0000
0000
0000
,
0110
0000
0000
0000
,
1001
0000
1000
0000
,
2000
0000
0000
3000
,
1000
1000
0000
0000
,
0002
0000
0000
0003
,
0001
0001
0000
0000
,
1001
0000
0001
0000
,
1001
0000
1000
0000
,
0110
0000
0000
0000
,
0110
0000
0000
0000
,
0020
0000
0000
0030
,
0010
0010
0000
0000
,
0200
0000
0000
0000
,
0000
0000
0300
0000
,
0100
0000
0000
0100
,
0000
0000
0000
0000
,
0000
0000
0000
0010
,
0000
0000
0000
0000
,
0000
0000
0000
1000
,
0000
0000
0000
0000
,
0000
0000
0000
0001
,
0000
0000
0000
0001
,
0000
0000
0000
0001
,
0000
0000
0000
0000
,
0000
0000
0000
0010
,
0000
0000
0000
0000
,
0000
0000
0000
0100
,
0000
0000
0000
0000
,
0000
0000
0000
1000
,
0000
0000
0000
1000
,
0000
0000
0000
1000
,
0000
1000
0000
1001
,
0000
0001
0000
1001
,
0000
1000
0000
0110
,
0000
0100
0000
0020
,
0000
0000
0030
0010
,
0010
0000
0000
0200
,
0000
0000
0300
0100
,
0100
0000
0000
0110
,
0000
0000
0000
1001
,
0000
0000
0000
1001
,
0000
1000
0000
1001
,
0000
0001
0000
0002
,
0000
0000
0003
0001
,
0001
0000
0000
2000
,
0000
0000
0000
0000
,
0000
3000
0000
1000
,
0000
0000
0000
0000
,
0000
1000
0000
0000
,
0000
0000
0000
0000
,
0000
0000
0000
0000
,
0000
0000
1000
0000
,
0000
0001
0000
0000
,
0000
0000
0000
0000
,
0000
0000
0000
0000
,
0000
0000
0001
0000
,
0000
0100
0000
0000
,
0000
0000
0000
0000
,
0000
0000
0000
0000
,
0000
0000
0100
0000
,
0000
0010
0000
0000
,
0000
0000
0000
0000
,
0000
0000
0000
0000
,
0000
0000
0010
0000
,
0000
0010
0000
0000
,
0000
0000
0100
0000
0000
0000
0000
0100
,
0000
0000
0000
0000
0000
0000
0000
0010
,
0000
0000
0000
0000
0000
0000
0000
1000
,
0000
0000
0000
0000
,
0000
0000
0000
0000
0000
0000
0000
0002
,
0000
0000
0000
0000
,
0000
0000
0000
0000
,
0000
0000
0000
0000
,
0000
0000
0000
0000
0000
0000
0000
0003
;

//---------------dance-single - ----------------
#NOTEDATA:;
#CHARTNAME:;
#STEPSTYPE:dance-single;
#DESCRIPTION:;
#CHARTSTYLE:;
#DIFFICULTY:Hard;
#METER:12;
#RADARVALUES:0.461065,0.902391,0.291466,0.000000,0.348338,454.000000,413.000000,41.000000,0.000000,28.000000,0.000000,8.000000,10.000000,0.000000,0.461065,0.902391,0.291466,0.000000,0.348338,454.000000,413.000000,41.000000,0.000000,28.000000,0.000000,8.000000,10.000000,0.000000;
#CREDIT:;
#DISPLAYBPM:140.000000;
#NOTES:
// measure 0
0000
0000
0000
0000
,  // measure 1
0000
0000
0000
0000
,  // measure 2
0000
0000
0000
0000
,  // measure 3
0000
0000
0000
0000
,  // measure 4
1000
0000
0000
0000
0100
0000
0000
0000
0010
0000
0000
0100
0010
0000
0100
0000
,  // measure 5
1000
0000
0000
0000
0001
0000
0000
0000
1000
0000
0000
0001
1000
0000
0001
0000
,  // measure 6
0100
0000
0000
0000
0010
0000
0000
0000
0100
0000
0000
0010
0100
0000
0010
0000
,  // measure 7
0100
0010
0110
MMMM
,  // measure 8
1000
0100
1000
0100
0010
0001
0010
0001
1000
0100
0010
0000
0001
0100
0010
0000
,  // measure 9
0100
0010
0100
0010
1000
0001
1000
0001
1000
0100
0010
0000
0001
0010
0100
0000
,  // measure 10
1000
0100
1000
0100
0010
0001
0010
0001
1000
0001
0100
0000
0001
1000
0100
0000
,  // measure 11
0010
0100
0010
0100
1000
0001
1000
0001
0100
0010
1000
0000
0100
0010
0001
0000
,  // measure 12
1000
0000
0000
0000
0001
0000
0000
0000
1000
0000
0000
0001
1000
0000
0010
0000
,  // measure 13
0100
0000
0000
0000
0010
0000
0000
0000
0100
0000
0000
0010
0100
0000
0001
0000
,  // measure 14
1000
0000
0000
0000
0001
0000
0000
0000
1000
0000
0000
0001
1000
0000
0001
0000
,  // measure 15
0010
0100
1000
0001
1000
0000
MMMM
0000
,  // measure 16
0100
0000
0010
1000
1010
0000
0101
0000
0010
0100
1000
0000
0001
0010
0100
0000
,  // measure 17
1000
0000
0001
1000
1100
0000
1001
0000
0100
0010
0100
0000
0001
1000
0001
0000
,  // measure 18
1000
0100
1000
0100
4000
0000
3001
0000
0001
0100
0001
0100
0004
0000
1003
0000
,  // measure 19
0100
0010
0100
0010
0400
0000
1300
0000
0010
0100
0010
0100
0040
0000
0130
0000
,  // measure 20
0101
0011
1100
1010
,  // measure 21
0110
0101
0110
1010
,  // measure 22
1000
0001
1000
0001
,  // measure 23
1000
0001
1000
0001
,  // measure 24
1001
1001
1001
1000
,  // measure 25
0000
0010
0000
1000
,  // measure 26
0000
0010
1000
0000
0010
0000
0100
0000
,  // measure 27
0000
0001
0000
0100
,  // measure 28
0000
0001
0100
0000
0001
0000
1000
0000
,  // measure 29
0000
0001
0000
1000
,  // measure 30
0000
0001
1000
0000
0001
0000
0010
0000
,  // measure 31
0000
0100
0000
0010
,  // measure 32
0000
0100
0010
0000
0100
0000
1000
0000
,  // measure 33
0000
0001
0000
0010
,  // measure 34
0000
0001
0010
0000
0001
0000
1000
0000
,  // measure 35
0000
0100
0000
1000
,  // measure 36
0000
0001
1000
0000
0001
0000
0010
0000
,  // measure 37
0000
0100
0000
0010
,  // measure 38
0000
0100
0010
0000
0100
0000
1000
0000
,  // measure 39
0001
0010
0000
0001
,  // measure 40
0000
0000
0000
0000
0000
0000
0000
0000
0000
0000
0000
0000
0001
0010
0001
0010
,  // measure 41
0100
1000
0100
1000
0001
0010
0100
0000
1000
0010
0100
0000
0010
0100
0010
0100
,  // measure 42
0001
1000
0001
1000
0001
0010
0100
0000
1000
0100
0010
0000
0001
0010
0001
0010
,  // measure 43
0100
1000
0100
1000
0001
1000
0010
0000
1000
0001
0010
0000
0100
0010
0100
0010
,  // measure 44
0001
1000
0001
1000
0010
0100
0001
0000
0010
0100
1000
0000
0001
0000
0000
0000
,  // measure 45
1000
0000
0000
0000
0001
0000
0000
1000
0001
0000
0100
0000
0010
0000
0000
0000
,  // measure 46
0100
0000
0000
0000
0010
0000
0000
0100
0010
0000
1000
0000
0001
0000
0000
0000
,  // measure 47
1000
0000
0000
0000
0001
0000
0000
1000
0001
0000
1000
0000
0100
0000
0010
0000
,  // measure 48
0001
0000
1000
0000
0001
0000
0000
0000
MMMM
0000
0000
0000
0010
0000
0100
0001
,  // measure 49
0101
0000
1010
0000
0100
0010
0001
0000
1000
0100
0010
0000
0001
0000
1000
0001
,  // measure 50
0011
0000
1001
0000
0010
0100
0010
0000
1000
0001
1000
0000
0001
0010
0001
0010
,  // measure 51
0004
0000
1003
0000
1000
0010
1000
0010
4000
0000
3001
0000
0010
0100
0010
0100
,  // measure 52
0040
0000
0031
0000
0100
0010
0100
0010
0400
0000
0310
0000
1010
0000
0000
0000
,  // measure 53
1100
0011
0101
0110
,  // measure 54
1010
0110
0101
0001
,  // measure 55
1000
0001
1000
0001
,  // measure 56
1000
0001
1000
1001
,  // measure 57
1001
1001
0000
0000
,  // measure 58
0000
0110
0000
0000
,  // measure 59
0000
0000
0000
0000
,  // measure 60
0LL0
0000
0000
0000
,  // measure 61
0000
0000
0000
0000
,  // measure 62
0000
1001
0000
0000
,  // measure 63
0000
0000
0000
0000
,  // measure 64
L00L
0000
0000
0000
,  // measure 65
0000
0000
0000
0000
,  // measure 66
0000
1010
0000
0000
,  // measure 67
0000
0000
0000
0000
,  // measure 68
L0L0
0000
0000
0000
,  // measure 69
0000
0000
0000
0000
,  // measure 70
0000
0101
0000
0000
,  // measure 71
0000
0000
0000
0000
,  // measure 72
0L0L
0000
0000
0000
,  // measure 73
0000
0000
0000
0000
1000
1000
0100
0100
,  // measure 74
1000
0000
1000
0000
0001
0010
0100
1000
0001
0010
0100
1000
0001
0001
0100
0100
,  // measure 75
0001
0001
1000
0010
0100
0001
1000
0010
0100
0001
1000
0001
1000
0001
1000
0000
,  // measure 76
0100
1000
1000
0001
0100
0001
0001
1000
,  // measure 77
0010
1000
1000
0001
0010
0001
0001
1001
,  // measure 78
0000
0000
0000
0000
,  // measure 79
0000
0000
0000
0000
0000
0000
0000
L00L
,  // measure 80
0000
0000
0000
0000
,  // measure 81
0000
0000
0000
0000
,  // measure 82
0000
0000
0000
0000
,  // measure 83
0000
0000
0000
0000
0000
0000
0000
MMMM
,  // measure 84
0000
MMMM
0000
MMMM
0000
MMMM
0000
0000
;

//---------------dance-single - ----------------
#NOTEDATA:;
#CHARTNAME:;
#STEPSTYPE:dance-single;
#DESCRIPTION:;
#CHARTSTYLE:;
#DIFFICULTY:Easy;
#METER:6;
#RADARVALUES:0.162490,0.268318,0.014218,0.035545,0.000000,160.000000,158.000000,2.000000,5.000000,0.000000,0.000000,0.000000,0.000000,0.000000,0.162490,0.268318,0.014218,0.035545,0.000000,160.000000,158.000000,2.000000,5.000000,0.000000,0.000000,0.000000,0.000000,0.000000;
#CREDIT:;
#DISPLAYBPM:140.000000;
#NOTES:
0000
0000
0000
0000
,
0000
0000
0000
0000
,
0000
0000
0000
0000
,
0000
0000
0000
0000
,
1000
0010
1000
0000
,
0001
0100
0001
0000
,
1000
0100
1000
0000
,
0001
0010
0001
0000
,
0001
0001
0001
0001
,
0100
0100
0100
0100
,
0010
0010
0010
0010
,
1000
1000
1000
1000
,
1000
0100
1000
0000
,
0100
0001
0100
0000
,
0001
0010
0001
0000
,
0010
1000
0010
0000
,
0010
0010
0010
0010
,
0100
0100
0100
0100
,
0001
0001
1000
1000
,
0001
0001
1000
1000
,
0001
1000
0001
1000
,
0001
1000
0001
1000
,
0001
0000
0000
0000
,
1000
0000
0000
0000
,
0001
0000
1001
1000
,
0000
0000
0000
1000
,
0000
0000
0000
0010
,
0000
0010
0000
0010
,
0000
0000
0000
0001
,
0000
0000
0000
0001
,
0000
0000
0000
0010
,
0000
0010
0000
0010
,
0000
0000
0000
1000
,
0000
0000
0000
1000
,
0000
0000
0000
0100
,
0000
0100
0000
0100
,
0000
0000
0000
0001
,
0000
0000
0000
0001
,
0000
0000
0000
0100
,
0000
0100
0000
0100
,
0000
0000
0000
0100
,
0100
0100
0100
0010
,
0010
0010
0010
1000
,
1000
1000
1000
0001
,
0001
0001
0001
0001
,
0000
1000
0000
0100
,
0100
0100
0000
0010
,
0000
0001
0000
1000
,
1000
1000
0000
0001
,
0001
0001
0001
0010
,
0010
0010
0010
1000
,
1000
0100
0000
0001
,
0001
0100
0000
0100
,
0010
0100
0010
0100
,
0010
0100
0010
0100
,
0000
0000
0000
0010
,
0000
0000
0000
0100
,
0000
0110
0000
0000
,
0000
0020
0000
0000
,
0000
0000
0000
0000
,
0000
0000
0000
0000
,
0000
0000
0030
0000
,
0000
0200
0000
0000
,
0000
0000
0000
0000
,
0000
0000
0000
0000
,
0000
0000
0300
0000
,
0000
0002
0000
0000
,
0000
0000
0000
0000
,
0000
0000
0000
0000
,
0000
0000
0003
0000
,
0000
2000
0000
0000
,
0000
0000
0000
0000
,
0000
0000
0000
0000
,
0000
0000
3000
0000
,
0000
0000
0000
0001
0000
0001
0000
1000
,
0000
1000
0000
1000
0000
1000
0000
0100
,
0000
0000
0000
0100
0000
0000
0000
0100
,
0000
0100
0000
0100
0000
0000
0000
0010
,
0000
0000
0000
0000
0000
0000
0000
0010
,
0000
0000
0000
0000
0000
0000
0000
0020
,
0000
0000
0000
0000
,
0000
0000
0000
0000
,
0000
0000
0000
0000
,
0000
0000
0000
0000
0000
0000
0000
0030
;

//---------------dance-single - ----------------
#NOTEDATA:;
#CHARTNAME:;
#STEPSTYPE:dance-single;
#DESCRIPTION:;
#CHARTSTYLE:;
#DIFFICULTY:Medium;
#METER:9;
#RADARVALUES:0.208190,0.357757,0.014218,0.213268,0.000000,205.000000,203.000000,2.000000,30.000000,0.000000,0.000000,0.000000,0.000000,0.000000,0.208190,0.357757,0.014218,0.213268,0.000000,205.000000,203.000000,2.000000,30.000000,0.000000,0.000000,0.000000,0.000000,0.000000;
#CREDIT:;
#DISPLAYBPM:140.000000;
#NOTES:
0000
0000
0000
0000
,
0000
0000
0000
0000
,
0000
0000
0000
0000
,
0000
0000
0000
0000
,
1000
0100
0010
0010
,
0001
0100
0010
0010
,
1000
0001
1000
1000
,
0001
1000
0001
0001
,
2000
0000
0000
0000
3100
0100
0010
0010
,
0002
0000
0000
0000
0103
0100
0010
0010
,
0020
0000
0000
0000
1030
1000
0001
0001
,
0020
0000
0000
0000
0130
0100
1000
1000
,
0001
1000
0001
1000
,
1000
0001
1000
0001
,
0001
1000
0001
1000
,
0010
0100
0010
0100
,
0020
0000
0000
0000
0130
0100
0001
0001
,
0020
0000
0000
0000
0130
0100
1000
1000
,
0001
0100
1000
0100
,
0001
0010
1000
0010
,
0001
0010
1000
0010
,
0001
0100
1000
0100
,
1000
0000
0000
0000
,
0001
0000
0000
0000
,
1000
1000
1001
1000
,
0000
0100
0000
1000
,
0000
0000
0000
0001
,
0000
0100
0000
0001
,
0000
0000
0000
1000
,
0000
0100
0000
1000
,
0000
0000
0000
0001
,
0000
1000
0000
0001
,
0000
0000
0000
0001
,
0000
0010
0000
0001
,
0000
0000
0000
1000
,
0000
0010
0000
1000
,
0000
0000
0000
0001
,
0000
0010
0000
0001
,
0000
0000
0000
1000
,
0000
0001
0000
1000
,
0000
0000
0000
2000
,
3200
0000
1300
1000
0010
0000
0200
0000
,
0302
0000
0013
0010
0001
0000
0020
0000
,
0230
0000
1300
1000
0001
0000
0200
0000
,
0320
0000
0130
0100
0010
0000
1000
0000
,
1000
1000
1000
0001
,
0001
0001
0001
0010
,
0100
0010
0100
1000
,
0001
1000
0001
0200
,
0320
0000
1030
1000
0010
0000
0200
0000
,
0302
0000
1003
1000
0100
0000
0001
0000
,
0010
1000
0010
0001
,
0100
1000
0100
0001
,
0010
1000
0010
0001
,
0100
1000
0100
1000
,
0000
0000
0000
0001
,
0000
0000
0000
1000
,
1000
1001
0000
0000
,
0000
2000
0000
0000
,
0000
0000
0000
0000
,
0002
0000
0000
0000
,
0000
0000
3003
0000
,
0000
0200
0000
0000
,
0000
0000
0000
0000
,
0020
0000
0000
0000
,
0000
0000
0330
0000
,
0000
0020
0000
0000
,
0000
0000
0000
0000
,
0200
0000
0000
0000
,
0000
0000
0330
0000
,
0000
0002
0000
0000
,
0000
0000
0000
0000
,
2000
0000
0000
0000
,
0000
0000
3003
1000
,
0000
0000
0010
1000
1000
0001
0001
0200
,
0000
0302
0000
0013
0010
0000
0100
0100
,
0000
1000
0000
0001
0000
0010
0000
0100
,
0000
0010
0000
0001
0000
1000
0000
0002
,
0000
0000
0000
0000
,
0000
0000
0000
0000
0000
0000
0000
2000
,
0000
0000
0000
0000
,
0000
0000
0000
0000
,
0000
0000
0000
0000
,
0000
0000
0000
0000
0000
0000
0000
3003
;
