#VERSION:0.83;
#TITLE:Drop It Like It's Hot (feat. Pharrell);
#SUBTITLE:;
#ARTIST:Snoop Dogg;
#TITLETRANSLIT:;
#SUBTITLETRANSLIT:;
#ARTISTTRANSLIT:;
#GENRE:Hip-Hop/Rap;
#ORIGIN:;
#CREDIT:chewi;
#BANNER:Drop It Like It's Hot (feat. Pharrell).png;
#BACKGROUND:Drop It Like It's Hot (feat. Pharrell)-bg.png;
#PREVIEWVID:;
#JACKET:Drop It Like It's Hot (feat. Pharrell)-jacket.png;
#CDIMAGE:;
#DISCIMAGE:;
#LYRICSPATH:;
#CDTITLE:cdtitle.png;
#MUSIC:Drop It Like It's Hot (feat. Pharrell).ogg;
#OFFSET:-0.226000;
#SAMPLESTART:10.302000;
#SAMPLELENGTH:15.000000;
#SELECTABLE:YES;
#BPMS:0.000=92.000;
#STOPS:;
#DELAYS:;
#WARPS:;
#TIMESIGNATURES:0.000=4=4;
#TICKCOUNTS:0.000=4;
#COMBOS:0.000=1;
#SPEEDS:0.000=1.000=0.000=0;
#SCROLLS:0.000=1.000;
#FAKES:;
#LABELS:0.000=Song Start;
#BGCHANGES:;
#KEYSOUNDS:;
#ATTACKS:
;

//---------------dance-single - ----------------
#NOTEDATA:;
#CHARTNAME:;
#STEPSTYPE:dance-single;
#DESCRIPTION:;
#CHARTSTYLE:;
#DIFFICULTY:Beginner;
#METER:1;
#RADARVALUES:0.057093,0.093668,0.049956,0.000000,0.000000,48.000000,42.000000,6.000000,0.000000,0.000000,0.000000,0.000000,0.000000,0.000000,0.057093,0.093668,0.049956,0.000000,0.000000,48.000000,42.000000,6.000000,0.000000,0.000000,0.000000,0.000000,0.000000,0.000000;
#CREDIT:;
#NOTES:
// measure 0
0000
0000
0000
0000
,  // measure 1
0000
0000
0000
0000
,  // measure 2
0000
0000
0000
0000
,  // measure 3
0000
0000
0000
0000
,  // measure 4
1000
0000
0000
0000
,  // measure 5
0100
0000
0000
0000
,  // measure 6
1000
0000
0000
0000
,  // measure 7
0010
0000
0000
0000
,  // measure 8
0001
0000
0000
0000
,  // measure 9
0100
0000
0000
0000
,  // measure 10
0001
0000
0000
0000
,  // measure 11
0010
0000
0000
0000
,  // measure 12
1001
0000
0000
0000
,  // measure 13
1000
0000
0000
0000
,  // measure 14
1001
0000
0000
0000
,  // measure 15
0001
0000
0000
0000
,  // measure 16
0110
0000
0000
0000
,  // measure 17
0100
0000
0000
0000
,  // measure 18
0110
0000
0000
0000
,  // measure 19
0010
0000
0000
0000
,  // measure 20
1000
0000
0000
0000
,  // measure 21
0100
0000
0000
0000
,  // measure 22
0010
0000
0000
0000
,  // measure 23
0001
0000
0000
0000
,  // measure 24
1000
0000
0000
0000
,  // measure 25
0010
0000
0000
0000
,  // measure 26
0100
0000
0000
0000
,  // measure 27
0001
0000
0000
0000
,  // measure 28
0001
0000
0000
0000
,  // measure 29
0010
0000
0000
0000
,  // measure 30
0001
0000
0000
0000
,  // measure 31
0100
0000
0000
0000
,  // measure 32
1000
0000
0000
0000
,  // measure 33
0010
0000
0000
0000
,  // measure 34
1000
0000
0000
0000
,  // measure 35
0100
0000
0000
0000
,  // measure 36
1001
0000
0000
0000
,  // measure 37
0100
0000
0000
0000
,  // measure 38
0100
0000
0000
0000
,  // measure 39
0100
0000
0000
0000
,  // measure 40
1001
0000
0000
0000
,  // measure 41
0010
0000
0000
0000
,  // measure 42
0010
0000
0000
0000
,  // measure 43
0010
0000
0000
0000
,  // measure 44
0100
0000
0000
0000
,  // measure 45
0100
0000
0000
0000
;

//---------------dance-single - ----------------
#NOTEDATA:;
#CHARTNAME:;
#STEPSTYPE:dance-single;
#DESCRIPTION:;
#CHARTSTYLE:;
#DIFFICULTY:Easy;
#METER:3;
#RADARVALUES:0.110617,0.149869,0.049956,0.000000,0.000000,93.000000,87.000000,6.000000,0.000000,0.000000,0.000000,0.000000,0.000000,0.000000,0.110617,0.149869,0.049956,0.000000,0.000000,93.000000,87.000000,6.000000,0.000000,0.000000,0.000000,0.000000,0.000000,0.000000;
#CREDIT:;
#NOTES:
// measure 0
0000
0000
0000
0000
,  // measure 1
0000
0000
0000
0000
,  // measure 2
0000
0000
0000
0000
,  // measure 3
0000
0000
0000
0000
,  // measure 4
0100
0100
0010
0000
,  // measure 5
0010
0000
0010
0000
,  // measure 6
0010
0010
0100
0000
,  // measure 7
0100
0000
0100
0000
,  // measure 8
0001
0001
1000
0000
,  // measure 9
1000
0000
1000
0000
,  // measure 10
1000
0000
0000
0000
,  // measure 11
0001
0000
0000
0000
,  // measure 12
0100
0000
0100
0000
,  // measure 13
0010
0000
0010
0000
,  // measure 14
1000
0000
1000
0000
,  // measure 15
0001
0000
0001
0000
,  // measure 16
1000
0000
1000
0000
,  // measure 17
0100
0000
0100
0000
,  // measure 18
0110
0000
0000
0000
,  // measure 19
1001
0000
0000
0000
,  // measure 20
1000
0000
1000
0000
,  // measure 21
0100
0000
0100
0000
,  // measure 22
0001
0000
0001
0000
,  // measure 23
0010
0000
0010
0000
,  // measure 24
1000
0000
0010
0000
,  // measure 25
0001
0000
0000
0000
,  // measure 26
1001
0000
0000
0000
,  // measure 27
0110
0000
0000
0000
,  // measure 28
0100
0100
0010
0000
,  // measure 29
0010
0000
0010
0000
,  // measure 30
0010
0010
0100
0000
,  // measure 31
0100
0000
0100
0000
,  // measure 32
0001
0001
1000
0000
,  // measure 33
1000
0000
1000
0000
,  // measure 34
1000
1000
0001
0000
,  // measure 35
0001
0001
1000
0000
,  // measure 36
1001
0000
0000
0000
,  // measure 37
0100
0100
0100
0000
,  // measure 38
0010
0010
0010
0000
,  // measure 39
0100
0100
0100
0000
,  // measure 40
0110
0000
0000
0000
,  // measure 41
0001
0001
0001
0000
,  // measure 42
1000
1000
1000
0000
,  // measure 43
0001
1000
0001
0000
,  // measure 44
1000
0000
0000
0000
,  // measure 45
0100
0000
0000
0000
;

//---------------dance-single - ----------------
#NOTEDATA:;
#CHARTNAME:;
#STEPSTYPE:dance-single;
#DESCRIPTION:;
#CHARTSTYLE:;
#DIFFICULTY:Medium;
#METER:6;
#RADARVALUES:0.243834,0.224803,0.058282,0.000000,0.000000,205.000000,198.000000,7.000000,0.000000,0.000000,0.000000,0.000000,0.000000,0.000000,0.243834,0.224803,0.058282,0.000000,0.000000,205.000000,198.000000,7.000000,0.000000,0.000000,0.000000,0.000000,0.000000,0.000000;
#CREDIT:;
#NOTES:
// measure 0
0000
0000
0000
0000
,  // measure 1
0000
0000
0000
0000
,  // measure 2
0000
0000
0000
0000
,  // measure 3
0000
0000
0000
0000
,  // measure 4
1000
0000
0100
0000
0010
0010
0010
0000
,  // measure 5
0010
0010
0010
0000
0010
0010
0010
0000
,  // measure 6
0001
0000
0100
0000
0010
0010
0010
0000
,  // measure 7
0010
0010
0010
0000
0010
0010
0010
0000
,  // measure 8
0100
0000
0010
0000
1000
1000
1000
0000
,  // measure 9
0001
0001
0001
0000
1000
1000
1000
0000
,  // measure 10
0001
0010
1000
0100
,  // measure 11
0001
0010
1000
0010
,  // measure 12
1000
0000
1000
0000
1000
0010
1000
0000
,  // measure 13
0001
0000
0001
0000
0001
0010
0001
0000
,  // measure 14
1000
0000
1000
0000
1000
0100
1000
0000
,  // measure 15
0001
0000
0001
0000
0001
0100
0001
0000
,  // measure 16
0100
0000
0010
0000
1000
0001
1000
0000
,  // measure 17
0100
0000
0010
0000
0001
1000
0001
0000
,  // measure 18
1000
0000
1000
0000
1000
0100
0010
0000
,  // measure 19
0100
0000
0100
0000
0010
0001
0100
0000
,  // measure 20
0001
0000
0100
0000
0010
1000
0001
0000
,  // measure 21
1000
0100
0010
0100
,  // measure 22
1000
0000
0001
0000
0010
0100
1000
0000
,  // measure 23
0001
0100
0010
0001
,  // measure 24
0010
0000
0100
0000
0001
1000
0010
0000
,  // measure 25
1000
0000
0001
0000
1000
0001
1000
0000
,  // measure 26
0001
0000
0001
0000
1000
0001
1000
0000
,  // measure 27
1000
0000
1000
0000
0001
1000
0001
0000
,  // measure 28
1000
0000
0100
0000
1000
1000
1000
0000
,  // measure 29
0001
0001
0001
0000
1000
1000
1000
0000
,  // measure 30
0001
0000
0100
0000
0010
0010
0010
0000
,  // measure 31
0100
0100
0100
0000
0010
0010
0010
0000
,  // measure 32
1000
0000
0001
0000
1000
1000
1000
0000
,  // measure 33
0001
0001
0001
0000
1000
1000
1000
0000
,  // measure 34
0001
0010
1000
0100
,  // measure 35
0001
0010
1000
0010
,  // measure 36
0100
0100
0100
0110
,  // measure 37
0010
0010
0010
0110
,  // measure 38
1000
0001
1000
1100
,  // measure 39
1000
0001
1000
0101
,  // measure 40
0100
0100
0100
0110
,  // measure 41
0010
0010
0010
0110
,  // measure 42
1000
0000
0000
0001
0000
1000
0001
0000
,  // measure 43
1000
0000
0001
1000
0000
0001
1000
0000
,  // measure 44
1100
0010
0001
0100
,  // measure 45
0001
0000
0000
0000
;

//---------------dance-single - ----------------
#NOTEDATA:;
#CHARTNAME:;
#STEPSTYPE:dance-single;
#DESCRIPTION:;
#CHARTSTYLE:;
#DIFFICULTY:Hard;
#METER:12;
#RADARVALUES:0.402029,0.393406,0.108239,0.000000,0.253944,338.000000,325.000000,13.000000,0.000000,0.000000,0.000000,0.000000,0.000000,0.000000,0.402029,0.393406,0.108239,0.000000,0.253944,338.000000,325.000000,13.000000,0.000000,0.000000,0.000000,0.000000,0.000000,0.000000;
#CREDIT:;
#NOTES:
// measure 0
0000
0000
0000
0000
,  // measure 1
0000
0000
0000
0000
,  // measure 2
0000
0000
0000
0000
,  // measure 3
0000
0000
0000
0000
0000
0000
0000
1000
,  // measure 4
0100
0000
0010
0000
0100
0000
1000
0000
0001
1000
0001
1000
0001
0000
0000
0000
,  // measure 5
1000
0001
1000
0001
1000
0000
0000
0000
0001
1000
0001
1000
0001
0000
0000
0000
,  // measure 6
1000
0000
0010
0000
0100
0000
0010
0000
1000
0010
1000
0010
1000
0000
0000
0000
,  // measure 7
0001
0100
0001
0100
0001
0000
0000
0000
1000
0100
1000
0100
1000
0000
0100
0000
,  // measure 8
1000
0000
0100
0000
0010
0000
0100
0000
1000
0100
1000
0100
1000
0000
0000
0000
,  // measure 9
0001
0010
0001
0010
0001
0000
0000
0000
1000
0001
1000
0001
1000
0000
0000
0000
,  // measure 10
1000
0000
0000
0001
0001
0000
0100
0000
0000
0000
0100
0000
0010
0000
0000
0000
,  // measure 11
1000
0000
0000
1000
1000
0000
0100
0000
0000
0000
0010
0000
0100
0000
0000
0000
,  // measure 12
1000
0010
0100
0010
1000
0100
0010
0100
,  // measure 13
1000
0001
0010
0100
0010
0001
0100
0010
,  // measure 14
0001
0010
0100
0001
0010
0100
0001
0010
,  // measure 15
1000
0100
0010
0100
1000
0010
0100
0010
,  // measure 16
0100
0010
1000
0001
0010
0100
1000
0001
,  // measure 17
1000
0100
0001
1000
0010
0001
1000
0001
,  // measure 18
1001
0000
0000
1000
1000
0000
0010
0000
0000
0000
0100
0000
0101
0000
0000
0000
,  // measure 19
1001
0000
0000
0001
0001
0000
0100
0000
0000
0000
0010
0000
1010
0000
0000
0000
,  // measure 20
0100
0001
1000
0010
1000
0100
0010
0100
,  // measure 21
1000
0001
0010
0100
0001
0100
0010
0001
,  // measure 22
0100
0010
1000
0100
1000
0010
0100
1000
,  // measure 23
0100
0010
1000
0100
0010
0100
1000
0000
,  // measure 24
0001
0010
0100
1000
0010
0100
0001
1000
,  // measure 25
0010
0001
0100
1000
0010
0001
1000
0000
,  // measure 26
1001
0000
0000
1000
1000
0000
1000
0000
0000
0000
0001
0000
0100
0000
0000
0000
,  // measure 27
1000
0100
0010
0100
1000
0001
0010
0100
,  // measure 28
1000
0000
0010
0000
1000
0000
0100
0000
1000
0100
1000
0100
1000
0000
0000
0000
,  // measure 29
0001
0010
0001
0010
0001
0000
0000
0000
1000
0001
1000
0001
1000
0000
0000
0000
,  // measure 30
0001
0000
0100
0000
0010
0000
0100
0000
0001
0100
0001
0100
0001
0000
0000
0000
,  // measure 31
1000
0010
1000
0010
1000
0000
0000
0000
0001
1000
0001
1000
0001
0000
0000
0000
,  // measure 32
1000
0000
0100
0000
0010
0000
0001
0000
1000
0100
0010
0001
1000
0000
0000
0000
,  // measure 33
0001
0010
0100
1000
0001
0000
0000
0000
1000
0100
0010
0001
1000
0000
0000
0000
,  // measure 34
0001
0000
0000
1000
1000
0000
0001
0000
0000
0000
0100
0000
0100
0000
0000
0000
,  // measure 35
0010
0000
0000
0100
0100
0000
0010
0000
0000
0000
1000
0000
1000
0000
0000
0000
,  // measure 36
1000
0000
0000
1000
0000
0000
1000
0000
0010
0000
0100
0100
0101
0000
0000
0000
,  // measure 37
0001
0000
0000
0001
0000
0000
0001
0000
0010
0000
0100
0100
1100
0000
0000
0000
,  // measure 38
1000
0000
0000
1000
0000
0000
1000
0000
0001
0000
1000
0001
1001
0000
0000
0000
,  // measure 39
0001
0000
0000
0001
0000
0000
0001
0000
1000
0000
0001
1000
1001
0000
0000
0000
,  // measure 40
0100
0000
0000
0010
0000
0000
1000
0000
0001
0000
1000
1000
1100
0000
0000
0000
,  // measure 41
1000
0000
0000
0100
0000
0000
0010
0000
0001
0000
0001
0001
0011
0000
0000
0000
,  // measure 42
0001
0000
0000
1000
1000
0000
0001
0000
0000
0000
0100
0000
0100
0000
0000
0000
,  // measure 43
0010
1000
0000
0010
1000
0000
0010
0000
0100
0001
0000
0100
0001
0000
0100
0000
,  // measure 44
0101
0000
0000
0010
0000
0000
0100
0000
1000
0000
0100
0000
1100
0000
0000
0000
,  // measure 45
1000
0000
0000
0000
;
