#TITLE:DRIVE ME CRAZY (Al Storm remix);
#SUBTITLE:;
#ARTIST:Asio feat. Fraz & Yasmine;
#TITLETRANSLIT:;
#SUBTITLETRANSLIT:;
#ARTISTTRANSLIT:;
#CREDIT:xRGTMx;
#BANNER:DRIVE ME CRAZY (Al Storm remix).png;
#BACKGROUND:DRIVE ME CRAZY (Al Storm remix)-bg.png;
#LYRICSPATH:;
#CDTITLE:;
#MUSIC:DRIVE ME CRAZY (Al Storm remix).mp3;
#OFFSET:-1.760;
#SAMPLESTART:17.160;
#SAMPLELENGTH:12.000;
#SELECTABLE:YES;
#BPMS:0.000=140.000;
#STOPS:;
#BGCHANGES:;

//---------------dance-single - xRGTMx----------------
#NOTES:
     dance-single:
     xRGTMx:
     Hard:
     8:
     0.504,0.532,0.275,0.295,0.079: // measure 1
0000
0000
0000
0000
,  // measure 2
2001
0000
0000
0001
0000
0000
0000
3001
,  // measure 3
0002
0000
0203
0000
,  // measure 4
0320
0000
0000
0100
0000
0000
0000
0130
,  // measure 5
0200
0000
0320
0000
,  // measure 6
2030
0000
0000
0100
0000
0000
0000
3100
,  // measure 7
0200
0000
0320
0000
,  // measure 8
0032
0000
0000
0000
1000
0000
0000
1003
,  // measure 9
1000
0001
0100
0110
,  // measure 10
1001
0000
1000
0001
0100
0000
0100
0010
,  // measure 11
0100
0000
0100
0001
1000
0001
0010
0000
,  // measure 12
0110
0000
0010
0100
1000
0000
1000
0010
,  // measure 13
0001
0000
0001
0010
1000
0001
0010
0100
,  // measure 14
1000
0000
0100
0010
0100
0000
1000
0010
,  // measure 15
0100
0001
1000
0100
0010
0000
0110
0000
,  // measure 16
0011
0000
1100
0000
1001
0000
1000
0001
,  // measure 17
1000
0010
0100
0010
0100
0001
1000
0000
,  // measure 18
0012
0013
0120
0130
,  // measure 19
1200
0000
1300
0001
1000
0001
0100
0010
,  // measure 20
0120
1030
0210
0301
,  // measure 21
2001
0000
3001
0010
1000
0001
1000
0010
,  // measure 22
0001
0000
0000
1000
0010
0000
0000
0000
1000
0000
0000
0001
0010
0000
0000
0000
,  // measure 23
0100
0000
0000
0100
0010
0000
0000
0010
0001
0000
0100
0000
1000
0000
0100
0000
,  // measure 24
0001
0100
1000
0000
0001
0010
1000
0000
,  // measure 25
0001
0100
0010
1000
0100
0001
1000
0010
,  // measure 26
0001
0000
0100
0010
0100
0010
0100
0100
,  // measure 27
1000
0000
0100
0010
0100
0010
0100
0100
,  // measure 28
0001
0000
0010
0100
0010
0100
0010
0010
,  // measure 29
1000
0000
0010
0100
0010
0100
0010
0010
,  // measure 30
0001
0000
0010
0010
0100
0100
1000
1000
,  // measure 31
0001
0000
1000
1000
0010
0010
0100
0100
,  // measure 32
0001
0000
1000
0001
0100
0100
0010
0010
,  // measure 33
0100
0010
2000
0002
0000
0000
0000
3003
,  // measure 34
1000
0000
0000
0010
0000
0000
0100
0000
0001
0000
0000
0010
0000
0000
0100
0000
,  // measure 35
1000
0000
0000
0100
0000
0000
0010
0000
0100
0000
0000
1000
0000
0000
0010
0000
,  // measure 36
0100
0000
0000
0001
0000
0000
1000
0000
0010
0000
0000
1000
0000
0000
0001
0000
,  // measure 37
0100
0010
1010
0011
,  // measure 38
1000
0000
0000
0100
0000
0000
0010
0000
0001
0000
0000
0100
0000
0000
0010
0000
,  // measure 39
1000
0000
0000
0010
0000
0000
0100
0000
0010
0000
0000
1000
0000
0000
0100
0000
,  // measure 40
0010
0000
0000
0001
0000
0000
1000
0000
0100
0000
0000
1000
0000
0000
0001
0000
,  // measure 41
0010
0100
1100
0101
,  // measure 42
2000
3001
0011
1100
,  // measure 43
0020
0000
0000
0002
0030
0013
0001
1000
,  // measure 44
0010
0000
1100
0000
0101
0000
2000
0002
,  // measure 45
0000
3000
0100
0000
0100
0000
0103
0000
,  // measure 46
0100
0010
1000
0000
0200
0000
0310
0000
,  // measure 47
0100
1000
0010
0000
0200
0000
0301
0000
,  // measure 48
0100
0001
1000
0001
0100
0010
0100
1000
,  // measure 49
0200
0000
0000
0000
0000
0000
0001
0300
,  // measure 50
1001
0000
0001
1000
0010
0000
0010
0100
,  // measure 51
0010
0000
0010
1000
0001
1000
0100
0000
,  // measure 52
0110
0000
0100
0010
0001
0000
0001
0100
,  // measure 53
1000
0000
1000
0100
0001
1000
0100
0010
,  // measure 54
0001
0000
0010
0100
0010
0000
0001
0100
,  // measure 55
0010
1000
0001
0010
0100
0000
0110
0000
,  // measure 56
1100
0000
0011
0000
1001
0000
0001
1000
,  // measure 57
0002
0203
0320
2030
,  // measure 58
3000
0000
0000
0000
;

//---------------dance-single - xRGTMx----------------
#NOTES:
     dance-single:
     xRGTMx:
     Medium:
     5:
     0.293,0.305,0.098,0.128,0.000: // measure 1
0000
0000
0000
0000
,  // measure 2
1100
0000
0000
0000
,  // measure 3
0010
0000
0001
0000
,  // measure 4
1000
0000
0000
0000
,  // measure 5
0001
0000
0100
0000
,  // measure 6
0010
0000
0000
0000
,  // measure 7
1000
0000
0001
0000
,  // measure 8
1000
0000
0000
0000
,  // measure 9
0110
0000
1001
0000
,  // measure 10
0001
0001
1000
1000
,  // measure 11
0010
0010
0100
0100
,  // measure 12
0010
0010
1000
1000
,  // measure 13
0100
0100
0010
0010
,  // measure 14
0100
0100
1000
1000
,  // measure 15
0001
0001
0100
0100
,  // measure 16
0010
0010
0100
0100
,  // measure 17
1001
0000
0110
0000
,  // measure 18
1000
0000
0000
0100
0010
0000
0001
0000
,  // measure 19
1000
0000
0000
0010
0100
0000
0001
0000
,  // measure 20
1000
0000
0000
0100
1000
0000
1000
0000
,  // measure 21
0001
0000
0000
0100
0001
0000
1000
0000
,  // measure 22
0001
0000
0000
0010
0100
0000
1000
0000
,  // measure 23
0001
0000
0000
0100
0010
0000
1000
0000
,  // measure 24
0001
0000
0000
0100
0001
0000
0001
0000
,  // measure 25
1000
0000
0000
0100
1000
0000
1000
0000
,  // measure 26
0020
0100
0130
0001
,  // measure 27
0002
1000
1003
0100
,  // measure 28
0200
0010
0310
0001
,  // measure 29
0002
1000
1003
0001
,  // measure 30
2000
0100
3010
0100
,  // measure 31
0002
0100
0013
0100
,  // measure 32
2000
0010
3100
0010
,  // measure 33
0002
0010
0103
0010
,  // measure 34
0100
0000
1000
1001
,  // measure 35
0001
0000
0100
0110
,  // measure 36
0010
0000
1000
1001
,  // measure 37
0001
0000
1000
1000
,  // measure 38
0001
0010
0100
1000
,  // measure 39
0001
0010
0100
1000
,  // measure 40
0001
0100
0010
1000
,  // measure 41
0001
0100
0010
1000
,  // measure 42
0100
1000
0010
0100
,  // measure 43
0002
0000
0000
1000
0003
0000
1000
0000
,  // measure 44
0100
0000
0001
0000
0100
0000
1000
0002
,  // measure 45
0000
0000
0000
0000
,  // measure 46
1003
1000
0010
0010
,  // measure 47
0100
0000
0000
0001
0000
0000
0010
0000
,  // measure 48
0200
0000
2300
0000
,  // measure 49
3020
0000
0000
0000
,  // measure 50
1030
1000
0001
0001
,  // measure 51
0100
0100
0010
0010
,  // measure 52
0100
0100
0001
0001
,  // measure 53
0010
0010
0100
0100
,  // measure 54
0010
0010
0001
0001
,  // measure 55
1000
1000
0010
0010
,  // measure 56
0100
0100
0010
0010
,  // measure 57
1001
0000
0110
0000
;

//---------------dance-single - xRGTMx----------------
#NOTES:
     dance-single:
     xRGTMx:
     Easy:
     3:
     0.181,0.222,0.088,0.039,0.000: // measure 1
0000
0000
0000
0000
,  // measure 2
1001
0000
0000
0000
,  // measure 3
0100
0000
0000
0000
,  // measure 4
0010
0000
0000
0000
,  // measure 5
1000
0000
0000
0000
,  // measure 6
0001
0000
0000
0000
,  // measure 7
1000
0000
0000
0000
,  // measure 8
0100
0000
0000
0000
,  // measure 9
0010
0000
0000
0000
,  // measure 10
0001
0001
0001
0000
,  // measure 11
0100
0000
0100
0000
,  // measure 12
0010
0010
0010
0000
,  // measure 13
1000
0000
1000
0000
,  // measure 14
0100
0100
0100
0000
,  // measure 15
0010
0000
0010
0000
,  // measure 16
0100
0100
0100
0000
,  // measure 17
1000
0000
0001
0000
,  // measure 18
1001
0000
0100
0000
,  // measure 19
1001
0000
0010
0000
,  // measure 20
1001
0000
0100
0000
,  // measure 21
1001
0000
0010
0000
,  // measure 22
0110
0000
1000
0000
,  // measure 23
0110
0000
0001
0000
,  // measure 24
0110
0000
1000
0000
,  // measure 25
0110
0000
0001
0000
,  // measure 26
1000
1000
0100
0000
,  // measure 27
0010
0000
0001
0000
,  // measure 28
0100
0100
0010
0000
,  // measure 29
1000
0000
0001
0000
,  // measure 30
0010
0010
0100
0000
,  // measure 31
1000
0000
0001
0000
,  // measure 32
1000
1000
0010
0000
,  // measure 33
0100
0000
0001
0000
,  // measure 34
1000
0000
1000
0000
,  // measure 35
0001
0000
0001
0000
,  // measure 36
0100
0000
0100
0000
,  // measure 37
0010
0000
0010
0000
,  // measure 38
1000
0001
1000
0000
,  // measure 39
0010
0100
0010
0000
,  // measure 40
1000
0001
1000
0000
,  // measure 41
0100
0010
0100
0000
,  // measure 42
2000
3000
0000
0000
,  // measure 43
0002
0003
0000
0000
,  // measure 44
0200
0300
0000
0000
,  // measure 45
0020
0030
0000
0000
,  // measure 46
1000
0000
0100
0000
,  // measure 47
0010
0000
0001
0000
,  // measure 48
1000
0000
0010
0000
,  // measure 49
0100
0000
0001
0000
,  // measure 50
1000
1000
1000
0000
,  // measure 51
0001
0000
0100
0000
,  // measure 52
0010
0010
0010
0000
,  // measure 53
0100
0000
0001
0000
,  // measure 54
1000
1000
1000
0000
,  // measure 55
0100
0000
0010
0000
,  // measure 56
0100
0100
0100
0000
,  // measure 57
1000
0000
0001
0000
;

//---------------dance-single - xRGTMx----------------
#NOTES:
     dance-single:
     xRGTMx:
     Beginner:
     1:
     0.112,0.165,0.000,0.039,0.000: // measure 1
0000
0000
0000
0000
,  // measure 2
1000
0000
0000
0000
,  // measure 3
0000
0000
0000
0000
,  // measure 4
0001
0000
0000
0000
,  // measure 5
0000
0000
0000
0000
,  // measure 6
0100
0000
0000
0000
,  // measure 7
0000
0000
0000
0000
,  // measure 8
0010
0000
0000
0000
,  // measure 9
0000
0000
0000
0000
,  // measure 10
1000
0000
1000
0000
,  // measure 11
1000
0000
0000
0000
,  // measure 12
0001
0000
0001
0000
,  // measure 13
0001
0000
0000
0000
,  // measure 14
0100
0000
0100
0000
,  // measure 15
0100
0000
0000
0000
,  // measure 16
0010
0000
0010
0000
,  // measure 17
0010
0000
0000
0000
,  // measure 18
1000
0000
0100
0000
,  // measure 19
0010
0000
0001
0000
,  // measure 20
1000
0000
0010
0000
,  // measure 21
0100
0000
0001
0000
,  // measure 22
1000
0000
0100
0000
,  // measure 23
0010
0000
0001
0000
,  // measure 24
1000
0000
0010
0000
,  // measure 25
0100
0000
0001
0000
,  // measure 26
1000
1000
1000
0000
,  // measure 27
1000
0000
0000
0000
,  // measure 28
0001
0001
0001
0000
,  // measure 29
0001
0000
0000
0000
,  // measure 30
0100
0100
0100
0000
,  // measure 31
0100
0000
0000
0000
,  // measure 32
0010
0010
0010
0000
,  // measure 33
0010
0000
0000
0000
,  // measure 34
1000
0000
0000
0000
,  // measure 35
0001
0000
0000
0000
,  // measure 36
0100
0000
0000
0000
,  // measure 37
0010
0000
0000
0000
,  // measure 38
1000
0000
0001
0000
,  // measure 39
1000
0000
0001
0000
,  // measure 40
0100
0000
0010
0000
,  // measure 41
0100
0000
0010
0000
,  // measure 42
2000
0000
3000
0000
,  // measure 43
0000
0000
0000
0000
,  // measure 44
0002
0000
0003
0000
,  // measure 45
0000
0000
0000
0000
,  // measure 46
0200
0000
0300
0000
,  // measure 47
0000
0000
0000
0000
,  // measure 48
0020
0000
0030
0000
,  // measure 49
0000
0000
0000
0000
,  // measure 50
1000
0000
1000
0000
,  // measure 51
1000
0000
0000
0000
,  // measure 52
0001
0000
0001
0000
,  // measure 53
0001
0000
0000
0000
,  // measure 54
0100
0000
0100
0000
,  // measure 55
0100
0000
0000
0000
,  // measure 56
0010
0000
0010
0000
,  // measure 57
0010
0000
0000
0000
;
