#TITLE:Dream Fighter;
#SUBTITLE:;
#ARTIST:Perfume;
#TITLETRANSLIT:;
#SUBTITLETRANSLIT:;
#ARTISTTRANSLIT:;
#CREDIT:Chewi☆;
#BANNER:Dream Fighter.png;
#BACKGROUND:Dream Fighter-bg.png;
#LYRICSPATH:;
#CDTITLE:;
#MUSIC:Dream Fighter.mp3;
#OFFSET:-1.753;
#SAMPLESTART:1.753;
#SAMPLELENGTH:15.000;
#SELECTABLE:YES;
#DISPLAYBPM:135.000;
#BPMS:0.000=135.000;
#STOPS:;
#BGCHANGES:;

//---------------dance-single - Chewi----------------
#NOTES:
     dance-single:
     Chewi:
     Hard:
     9:
     0.363,0.384,0.338,0.021,0.000: // measure 1
0000
0000
0000
0000
,  // measure 2
0000
0000
0000
0000
,  // measure 3
0000
0000
0000
0000
,  // measure 4
0000
0000
0000
0000
,  // measure 5
1000
0100
0001
0010
,  // measure 6
1000
0010
0001
0100
,  // measure 7
1000
0010
1000
0000
0001
0010
0001
0000
,  // measure 8
1000
1100
0001
0101
,  // measure 9
1000
0010
0100
0001
,  // measure 10
1000
0100
0010
0001
,  // measure 11
0010
0001
0010
0000
0010
1000
0010
0000
,  // measure 12
1000
1100
0001
0101
,  // measure 13
0100
0100
0100
0000
0010
0000
1000
0000
,  // measure 14
0001
0001
0001
0000
1000
0000
0100
0000
,  // measure 15
0010
0000
0100
0000
1000
0100
1000
0100
,  // measure 16
0000
0011
1010
0110
,  // measure 17
0100
0000
0100
0000
0100
0001
0010
0000
,  // measure 18
0100
1100
1000
1001
,  // measure 19
1000
0000
1000
0000
1000
0010
0100
0000
,  // measure 20
0010
0101
0010
1100
,  // measure 21
0001
0001
0001
0000
1000
0000
0100
0000
,  // measure 22
0010
0010
0010
0000
0100
0000
1000
0000
,  // measure 23
0010
0001
0100
1000
,  // measure 24
0010
1000
0100
0001
,  // measure 25
0010
0000
0010
0000
0010
0100
0001
0010
,  // measure 26
0100
0000
0100
0000
0100
1000
0010
0100
,  // measure 27
0001
0000
0001
0000
0001
1000
1001
0000
,  // measure 28
1000
0000
1000
0000
1000
0001
1000
0001
,  // measure 29
0000
0101
0100
0000
0000
0000
1000
0001
,  // measure 30
0000
1000
1010
0000
0101
0000
1000
0000
,  // measure 31
1000
0100
0001
0010
,  // measure 32
1000
1000
0001
0001
,  // measure 33
1000
1100
0001
0101
,  // measure 34
1000
0001
1000
0001
1000
0000
1000
0000
,  // measure 35
0001
0101
1000
1100
,  // measure 36
0001
1000
0001
1000
0001
0000
0001
0000
,  // measure 37
1000
1010
0100
0101
,  // measure 38
0001
0010
0100
1000
0100
0000
1000
0000
,  // measure 39
1000
1100
1000
1010
,  // measure 40
0001
1000
0001
1000
0001
0000
0001
0000
,  // measure 41
1001
0110
1001
0110
,  // measure 42
0100
1000
0010
0100
,  // measure 43
0101
0110
1010
1001
,  // measure 44
1000
0100
0010
0001
,  // measure 45
0001
0000
0100
0000
0010
1000
0001
0000
,  // measure 46
1000
0000
0100
0000
0010
0100
1000
0000
,  // measure 47
0001
0000
1000
0000
0010
0100
0001
0000
,  // measure 48
1000
0000
0100
0000
0001
1000
0100
0000
,  // measure 49
2002
0000
0000
0000
,  // measure 50
0000
0000
0000
0000
,  // measure 51
0000
0000
0000
0000
,  // measure 52
0000
0000
0000
0000
,  // measure 53
3003
0000
0000
0000
;

//---------------dance-single - Chewi----------------
#NOTES:
     dance-single:
     Chewi:
     Medium:
     6:
     0.280,0.357,0.042,0.063,0.000: // measure 1
0000
0000
0000
0000
,  // measure 2
0000
0000
0000
0000
,  // measure 3
0000
0000
0000
0000
,  // measure 4
0000
0000
0000
0000
,  // measure 5
2000
3100
0002
0103
,  // measure 6
2000
3010
0002
0013
,  // measure 7
0100
0000
0100
0000
0100
0010
0100
0000
,  // measure 8
0010
0000
0010
0000
0010
0100
0010
0000
,  // measure 9
0001
0010
0100
1000
,  // measure 10
0001
0010
0100
1000
,  // measure 11
0001
0100
1000
0010
,  // measure 12
0001
0100
1000
0100
,  // measure 13
1000
1000
1000
1000
,  // measure 14
0001
0001
0001
0001
,  // measure 15
1000
0001
0010
0100
,  // measure 16
1100
0000
0000
0000
,  // measure 17
1000
1000
1000
1001
,  // measure 18
0001
0010
0100
1000
,  // measure 19
0001
0001
0001
1001
,  // measure 20
1000
0010
0100
0001
,  // measure 21
1000
0100
0010
1000
,  // measure 22
0100
0001
0010
0100
,  // measure 23
0001
0010
1000
0010
,  // measure 24
1000
0100
0001
0100
,  // measure 25
1000
0001
0100
0010
,  // measure 26
1000
0001
0010
0100
,  // measure 27
1000
0000
0001
0000
1000
0001
1000
0000
,  // measure 28
0001
0000
1000
0000
0001
1000
0001
0000
,  // measure 29
1000
0010
1000
0000
,  // measure 30
0001
0100
0001
0000
,  // measure 31
1000
0100
1000
0100
,  // measure 32
0001
0010
0001
0010
,  // measure 33
0010
0100
0010
0100
,  // measure 34
0010
0001
0100
1000
,  // measure 35
0010
0100
0010
0100
,  // measure 36
0010
1000
0100
0001
,  // measure 37
0010
0100
1000
0010
,  // measure 38
0100
0001
0010
0100
,  // measure 39
1000
0001
0100
0010
,  // measure 40
1000
0001
0010
0100
,  // measure 41
1000
0001
1000
0001
,  // measure 42
0010
0100
0010
0100
,  // measure 43
0001
0100
0001
0100
,  // measure 44
1000
0100
1000
0100
,  // measure 45
0010
0100
1000
0010
,  // measure 46
0100
0001
0010
0100
,  // measure 47
0010
0001
1000
0010
,  // measure 48
0100
0100
0010
0010
,  // measure 49
2002
0000
0000
0000
,  // measure 50
0000
0000
0000
0000
,  // measure 51
0000
0000
0000
0000
,  // measure 52
0000
0000
0000
0000
,  // measure 53
3003
0000
0000
0000
;

//---------------dance-single - Chewi----------------
#NOTES:
     dance-single:
     Chewi:
     Easy:
     4:
     0.204,0.247,0.042,0.011,0.000: // measure 1
0000
0000
0000
0000
,  // measure 2
0000
0000
0000
0000
,  // measure 3
0000
0000
0000
0000
,  // measure 4
0000
0000
0000
0000
,  // measure 5
1000
0100
0010
0000
,  // measure 6
0001
0001
0001
0000
,  // measure 7
0001
0100
0010
0000
,  // measure 8
1000
1000
1000
0000
,  // measure 9
1000
0000
0100
0000
,  // measure 10
0001
0000
0010
0000
,  // measure 11
1000
0000
0100
0000
,  // measure 12
0001
0000
0010
0000
,  // measure 13
0100
0010
0100
0000
,  // measure 14
0010
0100
0010
0000
,  // measure 15
1000
0100
0001
0010
,  // measure 16
1000
0000
0000
0000
,  // measure 17
1000
0100
1000
0100
,  // measure 18
0001
0100
0001
0100
,  // measure 19
1000
0100
0001
0100
,  // measure 20
1000
0010
0001
0010
,  // measure 21
1000
0010
1000
0010
,  // measure 22
0001
0010
0001
0010
,  // measure 23
0001
0010
1000
0100
,  // measure 24
0001
0100
1000
0010
,  // measure 25
0100
0100
0100
0000
,  // measure 26
0001
1000
0001
0000
,  // measure 27
1000
1000
1000
0000
,  // measure 28
0001
1000
0001
0000
,  // measure 29
1001
0000
0000
0000
,  // measure 30
0110
0000
0000
0000
,  // measure 31
0100
0100
0100
0100
,  // measure 32
0100
0000
0010
0000
,  // measure 33
0001
0000
0100
0000
,  // measure 34
0010
0001
0100
0000
,  // measure 35
1000
0000
0010
0000
,  // measure 36
0100
1000
0010
0000
,  // measure 37
0100
0000
0010
0000
,  // measure 38
0100
0010
1000
0001
,  // measure 39
1000
0000
0001
0000
,  // measure 40
0001
0001
1000
1000
,  // measure 41
1001
0000
1000
0000
,  // measure 42
1000
0001
1000
0001
,  // measure 43
0100
0000
0010
0000
,  // measure 44
0100
0010
0100
0010
,  // measure 45
0110
0000
0010
0000
,  // measure 46
1000
0001
0010
0100
,  // measure 47
1000
0000
1000
0000
,  // measure 48
1000
0001
0100
0010
,  // measure 49
0020
0000
0000
0000
,  // measure 50
0000
0000
0000
0000
,  // measure 51
0000
0000
0000
0000
,  // measure 52
0000
0000
0000
0000
,  // measure 53
0030
0000
0000
0000
;

//---------------dance-single - Chewi----------------
#NOTES:
     dance-single:
     Chewi:
     Beginner:
     2:
     0.101,0.192,0.053,0.011,0.000: // measure 1
0000
0000
0000
0000
,  // measure 2
0000
0000
0000
0000
,  // measure 3
0000
0000
0000
0000
,  // measure 4
0000
0000
0000
0000
,  // measure 5
1000
0000
0000
0000
,  // measure 6
0001
0000
0000
0000
,  // measure 7
0001
0000
0000
0000
,  // measure 8
1000
0000
0000
0000
,  // measure 9
1000
0000
0000
0000
,  // measure 10
0001
0000
0000
0000
,  // measure 11
1000
0000
0000
0000
,  // measure 12
0001
0000
0000
0000
,  // measure 13
0100
0000
0000
0000
,  // measure 14
0010
0000
0000
0000
,  // measure 15
1000
0000
0000
0000
,  // measure 16
1001
0000
0000
0000
,  // measure 17
1000
0000
0000
0000
,  // measure 18
0001
0000
0000
0000
,  // measure 19
1000
0000
0000
0000
,  // measure 20
1000
0000
0000
0000
,  // measure 21
1000
0000
0000
0000
,  // measure 22
0001
0000
0000
0000
,  // measure 23
0001
0000
0000
0000
,  // measure 24
0001
0000
0000
0000
,  // measure 25
0100
0000
0000
0000
,  // measure 26
0001
0000
0000
0000
,  // measure 27
1000
0000
0000
0000
,  // measure 28
0001
0000
0000
0000
,  // measure 29
1001
0000
0000
0000
,  // measure 30
0110
0000
0000
0000
,  // measure 31
0100
0000
0000
0000
,  // measure 32
0100
0000
0000
0000
,  // measure 33
0001
0000
0100
0000
,  // measure 34
0010
0000
0100
0000
,  // measure 35
1000
0000
0010
0000
,  // measure 36
0100
0000
0010
0000
,  // measure 37
0100
0000
0010
0000
,  // measure 38
0100
0000
1000
0000
,  // measure 39
1000
0000
0001
0000
,  // measure 40
0001
0000
1000
0000
,  // measure 41
1001
0000
1000
0000
,  // measure 42
1000
0000
1000
0000
,  // measure 43
0110
0000
0100
0000
,  // measure 44
0100
0000
0100
0000
,  // measure 45
0010
0000
0010
0000
,  // measure 46
1000
0000
0010
0000
,  // measure 47
1000
0000
1000
0000
,  // measure 48
1000
0000
0001
0000
,  // measure 49
0002
0000
0000
0000
,  // measure 50
0000
0000
0000
0000
,  // measure 51
0000
0000
0000
0000
,  // measure 52
0000
0000
0000
0000
,  // measure 53
0003
0000
0000
0000
;
