#TITLE:Downtown;
#SUBTITLE:;
#ARTIST:Tommie Sunshine;
#TITLETRANSLIT:;
#SUBTITLETRANSLIT:;
#ARTISTTRANSLIT:;
#GENRE:;
#CREDIT:yamamoto_;
#MENUCOLOR:;
#METERTYPE:DDR X;
#BANNER:Downtown.png;
#BACKGROUND:Downtown-bg.png;
#LYRICSPATH:;
#CDTITLE:;
#MUSIC:Downtown.mp3;
#OFFSET:-0.534;
#SAMPLESTART:21.869;
#SAMPLELENGTH:15.000;
#SELECTABLE:YES;
#LISTSORT:;
#DISPLAYBPM:135.000;
#BPMS:0.000=135.000;
#STOPS:;
#BGCHANGES:;
#ATTACKS:;

//---------------dance-single - yamamoto_----------------
#NOTES:
     dance-single:
     yamamoto_:
     Beginner:
     1:
     0.074,0.108,0.010,0.000,0.000:
0000
0000
0000
0000
,
0000
0000
0000
0000
,
0000
0000
0000
0000
,
0000
0000
0000
0000
,
1000
0000
0000
0000
,
0001
0000
0000
0000
,
1000
0000
0000
0000
,
0001
0000
0000
0000
,
1000
0000
0000
0000
,
0010
0000
0000
0000
,
0001
0000
0000
0000
,
0100
0000
0000
0000
,
1000
0000
0000
0000
,
1000
0000
0000
0000
,
0001
0000
0000
0000
,
0001
0000
0000
0000
,
0100
0000
0000
0000
,
0100
0000
0000
0000
,
0010
0000
0000
0000
,
1000
0000
0000
0000
,
0100
0000
0000
0000
,
0100
0000
0000
0000
,
0010
0000
0000
0000
,
0010
0000
0000
0000
,
0001
0000
0000
0000
,
1000
0000
0000
0000
,
0010
0000
0000
0000
,
0100
0000
0000
0000
,
1000
0000
0000
0000
,
0001
0000
0000
0000
,
1000
0000
0000
0000
,
0001
0000
0000
0000
,
1000
0000
0000
0000
,
0010
0000
0000
0000
,
0001
0000
0000
0000
,
0100
0000
0000
0000
,
1000
0000
0000
0000
,
1000
0000
0000
0000
,
0001
0000
0000
0000
,
0001
0000
0000
0000
,
0100
0000
0000
0000
,
0100
0000
0000
0000
,
0010
0000
0000
0000
,
1000
0000
0000
0000
,
0100
0000
0000
0000
,
0100
0000
0000
0000
,
0010
0000
0000
0000
,
0010
0000
0000
0000
,
0001
0000
0000
0000
,
1000
0000
0000
0000
,
0010
0000
0000
0000
,
0100
0000
0000
0000
,
0110
0000
0000
0000
;

//---------------dance-single - yamamoto_----------------
#NOTES:
     dance-single:
     yamamoto_:
     Easy:
     5:
     0.215,0.241,0.072,0.000,0.000:
0000
0000
0000
0000
,
0000
0000
0000
0000
,
0000
0000
0000
0000
,
0000
0000
0000
0000
,
1000
1000
0100
0000
,
0001
0000
0010
0000
,
1000
1000
0010
0000
,
0001
0000
0100
0000
,
1000
0100
0001
0000
,
0010
0000
0010
0000
,
0001
0100
1000
0000
,
0100
0000
0100
0000
,
0000
1000
1000
1000
,
1000
1000
1001
0000
,
0000
0001
0001
0001
,
0001
0001
1001
0000
,
0000
0100
0100
0100
,
0100
0100
0110
0000
,
0000
0010
1000
0001
,
1000
0000
0000
0001
0000
1000
0000
0000
,
0100
0000
0000
0100
0000
0000
0000
0000
,
0100
0000
0000
0100
0000
0000
0000
0000
,
0010
0000
0000
0010
0000
0000
0000
0000
,
0010
0000
0000
0010
0000
0000
0000
0000
,
0001
0000
0000
0001
0000
0000
0000
0000
,
1000
0000
0000
1000
0000
0000
0000
0000
,
0010
0000
0000
0010
0000
0000
0000
0000
,
0100
0010
0100
0110
,
1000
1000
0100
0000
,
0001
0000
0010
0000
,
1000
1000
0010
0000
,
0001
0000
0100
0000
,
1000
0100
0001
0000
,
0010
0000
0010
0000
,
0001
0100
1000
0000
,
0100
0000
0100
0000
,
0000
1000
1000
1000
,
1000
1000
1001
0000
,
0000
0001
0001
0001
,
0001
0001
1001
0000
,
0000
0100
0100
0100
,
0100
0100
0110
0000
,
0000
0010
1000
0001
,
1000
0000
0000
0001
0000
1000
0000
0000
,
0100
0100
0100
0100
,
0100
0010
0100
0010
,
0001
0001
0001
0001
,
0001
1000
0001
1000
,
1000
1000
1000
1000
,
1000
0010
1000
0010
,
0100
0100
0100
0100
,
0010
0010
0010
0010
;

//---------------dance-single - yamamoto_----------------
#NOTES:
     dance-single:
     yamamoto_:
     Medium:
     8:
     0.315,0.323,0.207,0.104,0.000: // measure 1
0000
0000
0000
0000
,  // measure 2
0000
0000
0000
0000
,  // measure 3
0000
0000
0000
0000
,  // measure 4
0000
0000
0000
0000
,  // measure 5
1000
0100
1100
0000
,  // measure 6
0001
0100
0001
0100
0000
0000
0000
0000
,  // measure 7
0001
0100
0101
0000
,  // measure 8
1000
0100
1000
0100
0000
0000
0000
0000
,  // measure 9
1000
0100
1001
0000
,  // measure 10
0001
1000
0010
0100
0000
0000
0000
0000
,  // measure 11
0010
0100
0101
0000
,  // measure 12
0001
1000
0100
0010
0000
0000
0000
0000
,  // measure 13
0001
1000
0100
1000
,  // measure 14
0001
1000
0001
1000
0001
0000
0000
0000
,  // measure 15
1000
0001
0100
0001
,  // measure 16
1000
0001
1000
0001
1000
0000
0000
0000
,  // measure 17
0010
0100
0001
0100
,  // measure 18
0010
0100
0001
0100
0010
0000
0000
0000
,  // measure 19
1000
0100
0010
0100
,  // measure 20
1000
0100
1000
0100
1000
0000
0000
0000
,  // measure 21
2000
0000
0000
3002
0000
0000
0000
0000
,  // measure 22
2003
0000
0000
3002
0000
0000
0000
0000
,  // measure 23
1003
0010
0100
0001
,  // measure 24
0100
0010
0100
0000
0010
0000
1010
0000
,  // measure 25
2000
0000
0000
3020
0000
0000
0000
0000
,  // measure 26
2030
0000
0000
3002
0000
0000
0000
0000
,  // measure 27
0023
0000
0000
0230
0000
0000
0000
0000
,  // measure 28
0310
0001
0010
0001
0010
0000
0011
0000
,  // measure 29
0001
0010
0011
0000
,  // measure 30
1000
0010
1000
0010
0000
0000
0000
0000
,  // measure 31
1000
0010
1010
0000
,  // measure 32
0001
0010
0001
0010
0000
0000
0000
0000
,  // measure 33
0001
0010
1001
0000
,  // measure 34
1000
0001
0100
0010
0000
0000
0000
0000
,  // measure 35
0100
0010
1010
0000
,  // measure 36
1000
0001
0010
0100
0000
0000
0000
0000
,  // measure 37
1000
0001
0010
0001
,  // measure 38
1000
0001
1000
0001
1000
0000
0000
0000
,  // measure 39
0001
1000
0010
1000
,  // measure 40
0001
1000
0001
1000
0001
0000
0000
0000
,  // measure 41
0100
0010
1000
0010
,  // measure 42
0100
0010
1000
0010
0100
0000
0000
0000
,  // measure 43
0001
0010
0100
0010
,  // measure 44
0001
0010
0001
0010
0001
0000
0000
0000
,  // measure 45
1000
0001
1000
0001
,  // measure 46
1100
0101
1100
0000
,  // measure 47
0001
1000
0001
1000
,  // measure 48
1010
0011
1010
0000
,  // measure 49
0010
0100
0010
0100
,  // measure 50
0110
1001
1001
0000
,  // measure 51
1000
0010
0001
0100
,  // measure 52
1000
0001
0100
0010
,  // measure 53
0110
0000
0000
0000
;

//---------------dance-single - yamamoto_----------------
#NOTES:
     dance-single:
     yamamoto_:
     Hard:
     10:
     0.398,0.485,0.145,0.000,0.000:
0000
0000
0000
0000
,
0000
0000
0000
0000
,
0000
0000
0000
0000
,
0000
0000
0000
0000
,
0000
0000
1000
0100
1000
0000
0000
0000
,
0100
1000
0010
0100
0000
0000
0000
0000
,
0000
0000
0001
0100
0001
0000
0100
0000
,
0010
1000
0100
0010
0001
0000
0000
0000
,
0000
0000
0001
0010
0001
0000
0100
0000
,
0010
1000
0001
0010
0000
0000
0000
0000
,
0000
0000
0001
0010
0100
1000
0010
0100
,
0001
0101
0110
0000
,
0000
0000
0001
1000
0100
0000
0100
0000
,
0010
0100
1000
0001
1000
0000
0000
0000
,
0000
0000
1000
0010
0100
0000
0100
0000
,
0001
0100
0010
1000
0001
0000
0000
0000
,
0000
0000
1000
0100
0010
0000
0001
0000
,
0010
0100
1000
0010
1000
0000
0000
0000
,
0000
0000
0100
0000
0010
0000
0100
1000
,
0100
0001
0100
1000
0001
1000
0001
0000
,
0001
0100
0001
0010
0000
0100
0100
0000
,
1000
0100
0010
0100
0000
1000
1000
0000
,
0001
1000
0010
0100
0010
0000
1000
0010
,
1000
0010
0100
0001
0000
1000
0000
0000
,
0001
0010
0100
1000
0000
0100
0100
0000
,
1000
0010
0100
0001
0000
0100
0100
0000
,
0010
0100
0001
1000
0100
0010
0001
0000
,
1000
1000
0010
0010
0100
0000
1001
0000
,
0000
0000
0001
0010
0100
0000
1000
0000
,
0010
1000
0100
0010
0000
0001
0001
0000
,
0000
0000
0001
1000
0010
0000
0100
0000
,
0010
0100
0001
0010
0000
0100
0100
0000
,
0000
0000
1000
0100
0010
0000
0100
1000
,
0010
0100
0001
0100
0000
0010
0100
0000
,
0000
0000
0001
0010
0100
0000
1000
0010
,
1000
0100
0010
0001
0000
1000
1000
0000
,
0001
0000
1000
0100
0011
0000
1100
0000
,
0001
1000
0010
0100
0001
0000
0000
0000
,
0000
0000
0100
0010
1010
0000
1001
0000
,
1000
0100
0010
0001
0010
0000
0000
0000
,
0000
0000
0001
0010
1100
0000
1100
0000
,
0010
0100
0001
0100
0010
0000
0000
0000
,
0000
0000
1000
0000
0100
0000
0001
0100
,
1000
0100
0001
0010
1000
0100
0000
0000
,
1000
0100
0010
0001
1000
0100
0010
0001
,
1000
0100
1000
0100
1100
0000
0000
0000
,
0001
0100
0010
1000
0001
0100
0010
1000
,
0001
0100
0001
0100
0101
0000
0000
0000
,
0100
0010
1000
0001
0010
0100
1000
0001
,
1000
0100
1000
0100
1100
0000
0000
0000
,
0100
0010
0100
1000
0100
0010
0100
1000
,
0001
0100
0010
0100
0001
0100
0101
0000
,
1001
0000
0000
0000
;
