#TITLE:Don't Trust Me;
#SUBTITLE:;
#ARTIST:3OH!3;
#TITLETRANSLIT:;
#SUBTITLETRANSLIT:;
#ARTISTTRANSLIT:;
#GENRE:;
#CREDIT:Chewi☆;
#MENUCOLOR:;
#METERTYPE:DDR X;
#BANNER:Don't Trust Me.png;
#BACKGROUND:Don't Trust Me-bg.png;
#LYRICSPATH:;
#CDTITLE:;
#MUSIC:Don't Trust Me.mp3;
#OFFSET:-0.289;
#SAMPLESTART:29.821;
#SAMPLELENGTH:15.000;
#SELECTABLE:YES;
#LISTSORT:;
#DISPLAYBPM:33.000:260.000;
#BPMS:0.000=130.000,124.000=65.000,138.000=32.500,141.500=260.000,145.500=130.000;
#STOPS:30.500=0.115
,30.750=0.115
,31.000=0.115
,31.250=0.115
,59.000=1.385
,137.500=1.846
;
#BGCHANGES:;
#ATTACKS:;

//---------------dance-single - Chewi----------------
#NOTES:
     dance-single:
     Chewi:
     Hard:
     12:
     0.467,0.724,0.278,0.242,0.090: // measure 1
0000
0000
0000
0000
,  // measure 2
0000
0000
0000
0000
,  // measure 3
0000
0000
0000
0000
,  // measure 4
0000
0000
0000
0000
,  // measure 5
0000
0000
0000
0000
,  // measure 6
0000
0000
0000
0000
,  // measure 7
0000
0000
0000
0000
,  // measure 8
0000
0000
0000
0000
0000
0000
0000
0000
0000
0000
1000
1100
0001
0101
0000
0000
,  // measure 9
1010
0000
0100
0001
0011
0000
0001
0010
,  // measure 10
0100
1000
0001
1000
1001
0010
0100
0001
,  // measure 11
0100
0010
1000
0001
0010
0100
1000
0010
,  // measure 12
1000
1100
0000
0010
0110
0100
0010
0001
,  // measure 13
0200
0000
0310
0001
0200
0000
1300
0010
,  // measure 14
0100
0010
1000
0001
0101
0000
1000
0100
,  // measure 15
0010
0001
1000
0100
0010
0001
1001
0000
,  // measure 16
0002
0000
0103
1000
0010
0001
1000
1000
,  // measure 17
2000
0000
3100
0010
0100
1000
0001
0001
,  // measure 18
2000
0000
3010
0100
0001
0001
0100
0100
,  // measure 19
0000
0000
0010
0010
0000
1010
0000
0101
,  // measure 20
0000
0000
2000
0000
3010
0100
1000
0010
,  // measure 21
0200
0000
0301
0010
1000
0100
0001
0010
,  // measure 22
0200
0000
0310
1000
0100
1000
0010
0010
,  // measure 23
0100
0101
1010
1001
,  // measure 24
0002
0000
1003
0100
0001
0010
1000
0100
,  // measure 25
0020
0000
0130
1000
0010
0100
0001
0001
,  // measure 26
0200
0000
0310
1000
0001
1000
0001
0001
,  // measure 27
0000
0000
0010
0010
0000
0110
0000
1001
,  // measure 28
0000
0000
2000
0000
3010
0001
0100
1000
,  // measure 29
0020
0000
1030
0001
0010
0100
1000
0010
,  // measure 30
0020
0000
1030
0100
0010
0001
1000
0100
,  // measure 31
0010
0001
0100
0010
1000
0001
1000
0010
,  // measure 32
0100
0000
0101
0000
0000
0000
0000
0000
0001
0000
1000
0001
0000
0000
0000
0002
,  // measure 33
0000
1003
0010
0100
0001
0200
0000
0310
1000
0001
0010
0100
0000
1000
0100
0010
,  // measure 34
0010
0001
0101
0100
0001
0000
0101
0000
0001
0100
1010
1000
0000
0100
1100
0000
,  // measure 35
1000
0100
0110
0100
1000
0010
0110
0000
0020
0000
0030
0000
0002
0000
0003
0000
,  // measure 36
0200
0300
2000
3001
1000
0001
1000
0001
,  // measure 37
1000
0001
1000
0001
1000
1100
0000
0001
,  // measure 38
0100
0010
1000
0001
1000
1010
0000
1000
,  // measure 39
0100
0010
0001
0100
0010
0110
0000
1000
,  // measure 40
0100
0010
0001
1000
0100
0010
0001
1000
,  // measure 41
1000
0001
0001
2000
0000
3010
0000
0100
,  // measure 42
0001
0010
0100
0020
0000
0031
0010
0100
,  // measure 43
1000
0010
0010
0200
0000
0301
0010
0100
,  // measure 44
1000
0010
0100
0002
0000
0103
0010
1000
,  // measure 45
0001
0010
0100
0000
0100
0100
0010
0001
,  // measure 46
0010
0110
0010
0000
0100
0010
0001
0100
,  // measure 47
0010
0101
0100
0000
0001
0100
0010
1000
,  // measure 48
0001
1100
1000
0000
0000
0010
0010
0000
,  // measure 49
0110
0000
1001
0000
0000
2000
0000
3010
,  // measure 50
0100
0001
0010
0100
0000
2000
0000
3100
,  // measure 51
0010
0001
0100
0020
0000
0130
0000
0001
,  // measure 52
0010
0100
1000
0001
1000
0001
1000
0010
,  // measure 53
0000
0100
0000
0000
0000
0000
0000
0000
;

//---------------dance-single - Chewi----------------
#NOTES:
     dance-single:
     Chewi:
     Medium:
     6:
     0.288,0.327,0.090,0.108,0.009: // measure 1
0000
0000
0000
0000
,  // measure 2
0000
0000
0000
0000
,  // measure 3
0000
0000
0000
0000
,  // measure 4
0000
0000
0000
0000
,  // measure 5
0000
0000
0000
0000
,  // measure 6
0000
0000
0000
0000
,  // measure 7
0000
0000
0000
0000
,  // measure 8
0000
0000
0000
0000
0000
0000
0000
0000
0000
0000
0010
0100
0001
1000
0000
0000
,  // measure 9
0001
1000
0100
0010
,  // measure 10
0100
0000
1000
1000
1000
0000
0010
0000
,  // measure 11
0100
0001
0100
0010
,  // measure 12
1000
0000
0001
0001
0001
0000
0010
0000
,  // measure 13
0100
1000
0100
0010
,  // measure 14
0001
0000
0100
0100
0100
0000
0010
0000
,  // measure 15
1000
0001
1000
1001
,  // measure 16
2000
0000
3100
0000
0001
0100
0001
0000
,  // measure 17
0100
0010
1000
0001
,  // measure 18
0010
0100
1000
0001
,  // measure 19
1000
1100
0001
0101
,  // measure 20
0100
0000
0100
0000
0100
0010
0100
0000
,  // measure 21
0010
0000
0010
0000
0010
0100
0010
0000
,  // measure 22
1000
0000
1000
0000
1000
0001
1000
0000
,  // measure 23
0001
0000
0001
0000
0001
1000
0001
0000
,  // measure 24
2000
3100
0010
0001
,  // measure 25
0100
0010
0001
0100
,  // measure 26
1000
0010
0100
0001
,  // measure 27
1000
1100
0010
0110
,  // measure 28
0100
0000
0100
0000
0100
0010
0100
0000
,  // measure 29
0010
0000
0010
0000
0010
0100
0010
0000
,  // measure 30
0001
0000
0001
0000
0001
1000
0001
0000
,  // measure 31
1000
0000
1000
0000
1000
0001
1000
0000
,  // measure 32
1001
1000
0000
0000
0010
0100
0001
0000
,  // measure 33
2000
3200
0320
2030
,  // measure 34
3001
0001
0000
0000
1000
0100
0010
0000
,  // measure 35
0001
1000
0001
1000
0002
0003
0200
0300
,  // measure 36
0020
0030
2000
3001
0000
0000
0000
0001
,  // measure 37
0000
0000
0000
1000
0000
0010
0000
0100
,  // measure 38
0000
0001
0000
0100
0000
0010
0000
1000
,  // measure 39
1000
1000
0000
0100
0000
0010
0000
0100
,  // measure 40
0000
1000
0000
0010
0000
0100
0000
0001
,  // measure 41
0001
0001
0000
2000
0000
3100
0000
0001
,  // measure 42
0100
0001
0000
0100
0000
0010
0000
1000
,  // measure 43
0000
0001
0000
0010
0000
0100
0000
1000
,  // measure 44
0000
0001
0000
1000
0000
1100
0000
0001
,  // measure 45
0000
0101
0000
0100
0000
0100
0000
0100
,  // measure 46
0010
0100
0000
0010
0000
0010
0000
0010
,  // measure 47
0100
0010
0000
1000
0000
1000
0000
1000
,  // measure 48
0001
1000
0000
0001
0000
0001
0000
0001
,  // measure 49
1000
0001
0000
2000
0000
3100
0000
0010
,  // measure 50
0000
0001
0000
0100
0000
0010
0000
0001
,  // measure 51
0000
0100
0000
1000
0000
0010
0000
0100
,  // measure 52
0000
0001
0000
1000
0000
1100
0000
0010
,  // measure 53
0000
0110
0000
0000
0000
0000
0000
0000
;

//---------------dance-single - Chewi----------------
#NOTES:
     dance-single:
     Chewi:
     Easy:
     4:
     0.197,0.234,0.018,0.242,0.009: // measure 1
0000
0000
0000
0000
,  // measure 2
0000
0000
0000
0000
,  // measure 3
0000
0000
0000
0000
,  // measure 4
0000
0000
0000
0000
,  // measure 5
0000
0000
0000
0000
,  // measure 6
0000
0000
0000
0000
,  // measure 7
0000
0000
0000
0000
,  // measure 8
0000
0000
0000
0000
0000
0000
0000
0000
0000
0000
1000
0001
1000
0001
0000
0000
,  // measure 9
1000
0001
0000
0001
,  // measure 10
0100
0020
0030
1000
,  // measure 11
0010
0100
0000
0001
,  // measure 12
1000
0200
0300
0100
,  // measure 13
0100
0100
0000
0010
,  // measure 14
0010
0020
0030
0001
,  // measure 15
0000
1001
0000
0010
,  // measure 16
0100
0100
0100
0000
,  // measure 17
1000
0100
0010
0001
,  // measure 18
0010
0010
0010
0000
,  // measure 19
0001
0010
0100
1000
,  // measure 20
0002
0000
0000
0003
,  // measure 21
2000
0000
0000
3000
,  // measure 22
0020
0000
0000
0030
,  // measure 23
0200
0000
0000
0300
,  // measure 24
0100
0100
0100
0000
,  // measure 25
0001
0100
0010
1000
,  // measure 26
0001
0001
0001
0000
,  // measure 27
1000
0100
0010
0001
,  // measure 28
0002
0000
0000
0003
,  // measure 29
2000
0000
0000
3000
,  // measure 30
0020
0000
0000
0030
,  // measure 31
0200
0000
0000
0300
,  // measure 32
0010
0010
0000
0000
1000
0000
0001
0000
,  // measure 33
2000
3000
0002
0003
,  // measure 34
0100
0100
0000
0000
0010
0000
0100
0000
,  // measure 35
1000
0001
1000
0001
2000
0000
3000
0000
,  // measure 36
0002
0000
0003
0110
0000
0000
0000
0000
,  // measure 37
0000
0000
0000
0100
0000
0100
0000
0100
,  // measure 38
0000
0000
0000
0010
0000
1000
0000
0200
,  // measure 39
0000
0300
0000
0010
0000
0010
0000
0010
,  // measure 40
0000
0000
0000
0010
0000
0001
0000
0200
,  // measure 41
0000
0300
0000
2000
0000
0000
0000
0010
,  // measure 42
0000
3001
0000
0002
0000
0000
0000
1000
,  // measure 43
0000
0013
0000
2000
0000
0000
0000
0001
,  // measure 44
0000
3100
0000
0002
0000
0000
0000
1000
,  // measure 45
0000
0103
0000
1000
0000
0100
0000
1000
,  // measure 46
0000
0000
0000
1000
0000
0001
0000
2000
,  // measure 47
0000
3000
0000
1000
0000
0001
0000
0100
,  // measure 48
0000
0000
0000
1000
0000
0010
0000
0200
,  // measure 49
0000
0300
0000
2000
0000
0000
0000
0010
,  // measure 50
0000
3001
0000
0002
0000
0000
0000
1000
,  // measure 51
0000
0013
0000
2000
0000
0000
0000
0001
,  // measure 52
0000
3100
0000
0002
0000
0000
0000
1000
,  // measure 53
0000
0103
0000
0000
0000
0000
0000
0000
;

//---------------dance-single - Chewi----------------
#NOTES:
     dance-single:
     Chewi:
     Beginner:
     2:
     0.095,0.117,0.000,0.090,0.000: // measure 1
0000
0000
0000
0000
,  // measure 2
0000
0000
0000
0000
,  // measure 3
0000
0000
0000
0000
,  // measure 4
0000
0000
0000
0000
,  // measure 5
0000
0000
0000
0000
,  // measure 6
0000
0000
0000
0000
,  // measure 7
0000
0000
0000
0000
,  // measure 8
0000
0000
0000
0000
,  // measure 9
1000
0000
0000
0000
,  // measure 10
0100
0000
0000
0000
,  // measure 11
0010
0000
0000
0000
,  // measure 12
1000
0000
0000
0000
,  // measure 13
0100
0000
0000
0000
,  // measure 14
0010
0000
0000
0000
,  // measure 15
0001
0000
0000
0000
,  // measure 16
0100
0000
0100
0000
,  // measure 17
1000
0000
0010
0000
,  // measure 18
0010
0000
0010
0000
,  // measure 19
0001
0000
0100
0000
,  // measure 20
0002
0000
0000
0003
,  // measure 21
0001
0000
0000
0000
,  // measure 22
2000
0000
0000
3000
,  // measure 23
1000
0000
0000
0000
,  // measure 24
0100
0000
0100
0000
,  // measure 25
0001
0000
0010
0000
,  // measure 26
0001
0000
0001
0000
,  // measure 27
1000
0000
0010
0000
,  // measure 28
0002
0000
0000
0003
,  // measure 29
0001
0000
0000
0000
,  // measure 30
2000
0000
0000
3000
,  // measure 31
1000
0000
0000
0000
,  // measure 32
0020
0000
0000
0030
,  // measure 33
0010
0000
0000
0000
,  // measure 34
0200
0000
0000
0300
,  // measure 35
0100
0000
1000
0000
,  // measure 36
0001
0000
0000
0010
0000
0000
0000
0000
,  // measure 37
0000
0000
0000
0100
0000
0000
0000
0100
,  // measure 38
0000
0000
0000
0010
0000
0000
0000
0100
,  // measure 39
0000
0000
0000
0010
0000
0000
0000
0010
,  // measure 40
0000
0000
0000
0010
0000
0000
0000
0100
,  // measure 41
0000
0000
0000
2000
0000
0000
0000
0000
,  // measure 42
0000
3000
0000
1000
0000
0000
0000
0000
,  // measure 43
0000
0000
0000
0002
0000
0000
0000
0000
,  // measure 44
0000
0003
0000
0001
0000
0000
0000
0000
,  // measure 45
0000
0000
0000
1000
0000
0000
0000
1000
,  // measure 46
0000
0000
0000
1000
0000
0000
0000
1000
,  // measure 47
0000
0000
0000
1000
0000
0000
0000
0100
,  // measure 48
0000
0000
0000
1000
0000
0000
0000
0100
,  // measure 49
0000
0000
0000
2000
0000
0000
0000
0000
,  // measure 50
0000
3000
0000
1000
0000
0000
0000
0000
,  // measure 51
0000
0000
0000
0002
0000
0000
0000
0000
,  // measure 52
0000
0003
0000
0001
0000
0000
0000
0100
,  // measure 53
0000
0100
0000
0000
0000
0000
0000
0000
;
