#TITLE:돌스 (Dolls);
#SUBTITLE:;
#ARTIST:나인뮤지스;
#TITLETRANSLIT:Dolls;
#SUBTITLETRANSLIT:;
#ARTISTTRANSLIT:9MUSES;
#GENRE:K-Pop;
#CREDIT:chewi;
#BANNER:Dolls.png;
#BACKGROUND:Dolls-bg.png;
#LYRICSPATH:;
#CDTITLE:cdtitle.png;
#MUSIC:Dolls.ogg;
#OFFSET:-0.821000;
#SAMPLESTART:54.410999;
#SAMPLELENGTH:15.000000;
#SELECTABLE:YES;
#BPMS:0.000000=110.000000
;
#STOPS:
;
#BGCHANGES:-0.821=Dolls.avi=1.000=1=0=0=StretchNoLoop==CrossFade==,
163.000=Dolls-bg.png=1.000=1=0=1===CrossFade==,
99999=-nosongbg-=1.000=0=0=0 // don't automatically add -songbackground-
;
#KEYSOUNDS:;
#ATTACKS:;

//---------------dance-single - ----------------
#NOTES:
     dance-single:
     :
     Beginner:
     1:
     0.072402,0.129400,0.010783,0.043133,0.000000,42.000000,1.000000,4.000000,0.000000,0.000000,0.000000,0.072402,0.129400,0.010783,0.043133,0.000000,42.000000,1.000000,4.000000,0.000000,0.000000,0.000000:
// measure 0
0000
0000
0000
0000
,  // measure 1
0000
0000
0000
0000
,  // measure 2
0000
0000
0000
0000
,  // measure 3
0000
0000
0000
0000
,  // measure 4
1000
0000
0000
0000
,  // measure 5
0001
0000
0000
0000
,  // measure 6
0100
0000
0000
0000
,  // measure 7
0100
0000
0000
0000
,  // measure 8
0020
0000
0000
0030
,  // measure 9
0010
0000
0000
0000
,  // measure 10
2000
0000
0000
3000
,  // measure 11
1000
0000
0000
0000
,  // measure 12
0200
0000
0000
0300
,  // measure 13
0100
0000
0000
0000
,  // measure 14
0002
0000
0000
0003
,  // measure 15
0001
0000
0000
0000
,  // measure 16
0001
0000
0000
0000
,  // measure 17
1000
0000
0000
0000
,  // measure 18
0100
0000
0100
0000
,  // measure 19
0100
0000
0000
0000
,  // measure 20
1000
0000
0000
0000
,  // measure 21
0001
0000
0000
0000
,  // measure 22
0010
0000
0010
0000
,  // measure 23
0010
0000
0000
0000
,  // measure 24
0000
0000
0000
0000
,  // measure 25
0100
0000
0000
0000
,  // measure 26
0100
0000
0000
0000
,  // measure 27
0010
0010
0010
0000
,  // measure 28
0010
0000
0000
0000
,  // measure 29
0001
0000
0000
0000
,  // measure 30
0001
0000
0000
0000
,  // measure 31
1000
1000
1000
0000
,  // measure 32
1000
0000
0000
0000
,  // measure 33
1001
0000
0000
0000
,  // measure 34
0001
0000
0000
0000
,  // measure 35
1000
0000
0000
0000
,  // measure 36
0001
0000
0000
0000
,  // measure 37
0100
0000
0000
0000
,  // measure 38
0100
0000
0000
0000
,  // measure 39
0100
0000
0000
0000
,  // measure 40
0100
0000
0000
0000
;

//---------------dance-single - ----------------
#NOTES:
     dance-single:
     :
     Easy:
     3:
     0.118616,0.175768,0.053916,0.086266,0.000000,64.000000,5.000000,8.000000,0.000000,0.000000,0.000000,0.118616,0.175768,0.053916,0.086266,0.000000,64.000000,5.000000,8.000000,0.000000,0.000000,0.000000:
0000
0000
0000
0000
,
0000
0000
0000
0000
,
0000
0000
0000
0000
,
0000
0000
0000
0000
,
2000
0000
0000
3000
,
0002
0000
0000
0003
,
2000
0000
0000
3000
,
0002
0000
0000
0003
,
0001
0000
0100
0000
,
0001
0100
0000
0000
,
1000
0000
0010
0000
,
1000
0010
0000
0000
,
1000
0000
0001
0000
,
1000
0001
0000
0000
,
0001
0000
1000
0000
,
0001
1000
0000
0000
,
1001
0000
0100
0000
,
0100
0000
0000
0000
,
1001
0000
0010
0010
,
0010
0000
0000
0000
,
0110
0000
0000
0000
,
1000
1000
1000
0000
,
0110
0000
0000
0000
,
0001
0001
0001
0001
,
0001
0000
0000
0000
,
1000
0000
0100
0000
,
1000
0000
0010
0000
,
1000
0000
0100
0000
,
0010
0000
0001
0000
,
0001
0000
0100
0000
,
0001
0000
0010
0000
,
0001
0000
0010
0000
,
0100
0000
1000
0000
,
0002
0000
0000
0003
,
2000
0000
0000
3000
,
0002
0000
0010
0003
,
2000
0000
0010
3000
,
1001
0000
0000
0000
,
0010
0000
0000
0000
,
0100
0000
0000
0000
,
0010
0000
0000
0010
;

//---------------dance-single - ----------------
#NOTES:
     dance-single:
     :
     Medium:
     6:
     0.232611,0.263652,0.075483,0.064700,0.000000,138.000000,7.000000,6.000000,0.000000,0.000000,0.000000,0.232611,0.263652,0.075483,0.064700,0.000000,138.000000,7.000000,6.000000,0.000000,0.000000,0.000000:
0000
0000
0000
0000
,
0000
0000
0000
0000
,
0000
0000
0000
0000
,
0000
0000
0000
0000
,
0020
0000
0000
0030
,
0200
0000
0000
0300
,
2000
0001
0100
3000
,
0002
0100
1000
0003
,
1000
0001
0010
0100
,
1000
0000
1000
0000
0001
1000
0001
0000
,
1000
0010
0100
0001
,
0100
0000
0100
0000
0010
1000
0010
0000
,
1000
0001
0010
0100
,
1000
0000
1000
0000
0100
1000
0100
0000
,
1000
0001
0100
0010
,
1000
0000
1000
0000
0010
1000
0010
0000
,
1001
1000
0001
1000
,
0100
0010
0100
0000
0010
0100
0010
0000
,
0010
0100
1000
0001
,
1001
0000
0000
0000
,
1001
0100
0010
0100
,
0010
0100
0010
0000
0100
0010
0100
0000
,
0010
1000
0001
0100
,
0001
0010
1000
0100
,
0001
0000
0000
0000
,
1000
0100
1000
0100
1000
0000
0000
0000
,
0001
0100
0001
0000
,
1000
0010
1010
0000
,
0001
0010
0001
0000
,
0010
0100
0010
0100
0010
0000
0000
0000
,
0100
0010
0100
0000
,
0010
0001
0011
0000
,
1000
0100
1000
0000
,
1001
1000
0001
1000
,
0002
0010
1000
0103
,
1001
1000
0001
1000
,
0002
1000
0100
0013
,
1000
0100
0010
0001
,
0001
0100
0010
1000
,
1000
0010
0001
0010
,
1000
0100
0001
0100
;

//---------------dance-single - ----------------
#NOTES:
     dance-single:
     :
     Hard:
     9:
     0.328120,0.351536,0.075483,0.064700,0.064700,200.000000,7.000000,6.000000,0.000000,0.000000,0.000000,0.328120,0.351536,0.075483,0.064700,0.064700,200.000000,7.000000,6.000000,0.000000,0.000000,0.000000:
0000
0000
0000
0000
,
0000
0000
0000
0000
,
0000
0000
0000
0000
,
0000
0000
0000
0000
,
0010
1000
0100
0000
0010
0000
0010
0000
,
0010
0001
0100
0000
0010
0000
0010
0000
,
1000
0100
0010
0000
0001
0000
0001
0000
,
1000
0010
0100
0000
0001
0000
0101
0000
,
0200
0010
0001
0310
,
0010
1000
0010
0000
1000
0100
1000
0000
,
2000
0100
0010
3001
,
1000
0001
1000
0000
0001
0100
0001
0000
,
0200
0010
0001
0310
,
0010
0100
0001
0000
0010
0100
1000
0000
,
0002
1000
0010
0103
,
0001
1000
0100
0000
1000
0001
0100
0000
,
0110
1000
0010
0100
,
0001
0010
0100
1000
0100
0100
0100
0000
,
1100
0010
0100
0001
,
0010
0100
1000
0001
0010
0010
0010
0000
,
0011
0000
0100
0000
0010
1000
0001
0000
,
0100
0001
0100
0010
0100
0001
0100
0000
,
1010
0000
1000
0000
0100
0010
0100
0000
,
0100
1000
0100
0010
0100
1000
0001
1000
,
0001
0000
0000
0000
,
1000
0000
0000
0100
0000
0100
0000
0100
0000
0000
0010
0000
0001
0000
0000
0000
,
1000
0000
0000
0010
0000
0010
0000
0010
0000
0000
1000
0000
0001
0000
0000
0000
,
0001
0010
1000
0000
0001
1000
0001
0000
,
1000
0100
0001
0000
1000
0001
1000
0000
,
1000
0000
0000
0001
0000
0001
0000
0001
0000
0000
0010
0000
0100
0000
0000
0000
,
1000
0000
0000
0010
0000
0010
0000
0010
0000
0000
1000
0000
0100
0000
0000
0000
,
1000
0001
0100
0000
0010
0000
0010
0000
,
1000
0001
0010
0000
0100
0000
0100
0000
,
1000
0100
1000
0000
0001
0010
0001
0000
,
1000
0010
1000
0000
0001
0100
0001
0100
,
0010
0100
0001
0000
0010
0100
1000
0000
,
0001
0010
0001
0000
1000
0100
1000
0100
,
2100
0010
0001
3100
,
0010
0010
0010
0000
0100
0100
0100
0000
,
1002
0100
0010
1003
,
1000
1000
1000
0000
0001
0001
0001
0000
;
