#TITLE:Do You Wanna Come Over?;
#SUBTITLE:;
#ARTIST:Britney Spears;
#TITLETRANSLIT:;
#SUBTITLETRANSLIT:;
#ARTISTTRANSLIT:;
#GENRE:Pop;
#CREDIT:chewi;
#BANNER:Do You Wanna Come Over.png;
#BACKGROUND:Do You Wanna Come Over-bg.png;
#LYRICSPATH:;
#CDTITLE:cdtitle.png;
#MUSIC:Do You Wanna Come Over.ogg;
#OFFSET:-0.824000;
#SAMPLESTART:55.368999;
#SAMPLELENGTH:15.000000;
#SELECTABLE:YES;
#BPMS:0.000000=121.000000
,80.000000=60.500000
,96.000000=121.000000
;
#STOPS:
;
#BGCHANGES:-1.648=Do You Wanna Come Over.avi=1.000=1=0=1===CrossFade==,
160.000=Do You Wanna Come Over-bg.png=1.000=1=0=1===CrossFade==,
99999=-nosongbg-=1.000=0=0=0 // don't automatically add -songbackground-
;
#KEYSOUNDS:;
#ATTACKS:;

//---------------dance-single - ----------------
#NOTES:
     dance-single:
     :
     Hard:
     9:
     0.310535,0.327701,0.284007,0.152927,0.000000,199.000000,173.000000,26.000000,14.000000,0.000000,0.000000,0.310535,0.327701,0.284007,0.152927,0.000000,199.000000,173.000000,26.000000,14.000000,0.000000,0.000000:
// measure 0
0000
0000
0000
0000
,  // measure 1
0000
0000
0000
0000
,  // measure 2
0000
0000
0000
0000
,  // measure 3
0000
0000
0000
0000
,  // measure 4
2000
0000
3100
0100
0020
0000
0031
0001
,  // measure 5
1000
0100
0000
0001
0100
0000
0000
0000
,  // measure 6
0002
0000
0103
0100
0020
0000
1030
1000
,  // measure 7
0001
0100
0000
1000
0100
1000
0001
0000
,  // measure 8
1001
0000
0000
0110
0000
0000
0000
0000
,  // measure 9
1010
1100
0101
0011
,  // measure 10
0110
0000
0000
1001
0000
0000
0000
0000
,  // measure 11
0011
0101
1100
1010
,  // measure 12
0002
0000
0013
0010
0200
0000
1300
1000
,  // measure 13
0001
0010
0000
1000
0010
0000
0000
0000
,  // measure 14
2000
0000
3010
0010
0200
0000
0301
0001
,  // measure 15
1000
0010
0000
0001
0010
0001
1000
0000
,  // measure 16
1001
0000
0000
0110
0000
0000
0000
0000
,  // measure 17
0101
0011
1010
1100
,  // measure 18
0110
0000
0000
1001
0000
0000
0000
0000
,  // measure 19
1100
1010
0011
0101
,  // measure 20
2100
0000
3002
0000
,  // measure 21
0200
0000
0000
0303
,  // measure 22
1020
0000
2030
0000
,  // measure 23
0002
0000
0000
0000
0000
0000
0000
3003
,  // measure 24
1000
1000
1000
0000
0001
0001
0001
0000
,  // measure 25
1000
0000
0001
0000
0100
0010
1000
0001
,  // measure 26
0100
0100
0100
0000
0010
0010
0010
0000
,  // measure 27
0100
0000
0010
0000
1000
0100
0010
0001
,  // measure 28
1000
1000
1000
0000
0001
0001
0001
0000
,  // measure 29
0001
0000
1000
0000
1000
0010
0100
0001
,  // measure 30
0001
0001
0001
0000
1000
1000
1000
0000
,  // measure 31
0001
0010
0100
0000
1000
0100
0010
0001
,  // measure 32
0100
0100
0100
0000
0010
0010
0010
0000
,  // measure 33
0100
0000
0010
0000
1000
0001
0100
0010
,  // measure 34
1000
1000
1000
0000
0001
0001
0001
0000
,  // measure 35
1000
0000
0001
0000
0100
0001
1000
0010
,  // measure 36
0100
0100
0100
0000
0010
0010
0010
0000
,  // measure 37
0100
0000
0010
0000
0100
0001
1000
0010
,  // measure 38
0010
0010
0010
0000
0100
0100
0100
0000
,  // measure 39
0010
1000
0001
0000
0100
0001
1000
0010
,  // measure 40
1000
0000
0000
0000
;

//---------------dance-single - ----------------
#NOTES:
     dance-single:
     :
     Beginner:
     2:
     0.074903,0.106503,0.043693,0.043693,0.000000,48.000000,44.000000,4.000000,4.000000,0.000000,0.000000,0.074903,0.106503,0.043693,0.043693,0.000000,48.000000,44.000000,4.000000,4.000000,0.000000,0.000000:
0000
0000
0000
0000
,
0000
0000
0000
0000
,
0000
0000
0000
0000
,
0000
0000
0000
0000
,
1000
0000
0000
0000
,
1000
0000
1000
0000
,
0001
0000
0000
0000
,
0001
0000
0001
0000
,
1001
0000
0000
0000
,
0100
0000
0000
0000
,
0110
0000
0000
0000
,
0001
0000
0000
0000
,
0010
0000
0000
0000
,
0010
0000
0010
0000
,
0100
0000
0000
0000
,
0100
0000
0100
0000
,
0110
0000
0000
0000
,
0010
0000
0000
0000
,
1001
0000
0000
0000
,
1000
0000
0000
0000
,
1000
0000
0000
0000
,
0001
0000
0000
0000
,
0100
0000
0000
0000
,
0010
0000
0000
0000
,
2000
0000
0000
3000
,
1000
0000
1000
0000
,
0002
0000
0000
0003
,
0001
0000
0001
0000
,
0020
0000
0000
0030
,
0010
0000
0010
0000
,
0200
0000
0000
0300
,
0100
0000
0100
0000
,
0100
0000
0000
0000
,
1000
0000
0000
0000
,
0010
0000
0000
0000
,
0001
0000
0000
0000
,
0100
0000
0000
0000
,
1000
0000
0000
0000
,
0010
0000
0000
0000
,
0001
0000
0000
0000
;

//---------------dance-single - ----------------
#NOTES:
     dance-single:
     :
     Easy:
     4:
     0.127959,0.173681,0.043693,0.131080,0.000000,82.000000,78.000000,4.000000,12.000000,0.000000,0.000000,0.127959,0.173681,0.043693,0.131080,0.000000,82.000000,78.000000,4.000000,12.000000,0.000000,0.000000:
0000
0000
0000
0000
,
0000
0000
0000
0000
,
0000
0000
0000
0000
,
0000
0000
0000
0000
,
1000
0000
0010
0000
,
1000
0000
1000
0000
,
0001
0000
0010
0000
,
0001
0000
0001
0000
,
1001
0000
0000
0000
,
1000
0001
1000
0001
,
0110
0000
0000
0000
,
0010
0100
0010
0100
,
0001
0000
0010
0000
,
0001
0000
0001
0000
,
1000
0000
0010
0000
,
1000
0000
1000
0000
,
1001
0000
0000
0000
,
0100
0010
0100
0010
,
0110
0000
0000
0000
,
1000
0001
1000
0001
,
0020
0000
0032
0000
,
0200
0000
0000
0303
,
0200
0000
0320
0000
,
2000
0000
0000
3030
,
1000
0000
0001
0000
,
1000
0100
1000
0100
,
0100
0000
0010
0000
,
0001
0010
0001
0010
,
0010
0000
0100
0000
,
1000
0010
1000
0010
,
0010
0000
0100
0000
,
0010
0100
0010
0100
,
0200
0000
0000
0300
,
0100
0100
0100
0000
,
0002
0000
0000
0003
,
2000
0000
0000
3000
,
0020
0000
0000
0030
,
0010
0010
0010
0000
,
2000
0000
0000
3000
,
0002
0000
0000
0003
;

//---------------dance-single - ----------------
#NOTES:
     dance-single:
     :
     Medium:
     7:
     0.269963,0.303942,0.502474,0.174774,0.000000,173.000000,127.000000,46.000000,16.000000,0.000000,0.000000,0.269963,0.303942,0.502474,0.174774,0.000000,173.000000,127.000000,46.000000,16.000000,0.000000,0.000000:
// measure 0
0000
0000
0000
0000
,  // measure 1
0000
0000
0000
0000
,  // measure 2
0000
0000
0000
0000
,  // measure 3
0000
0000
0000
0000
,  // measure 4
2000
3001
0002
1003
,  // measure 5
0001
1000
0000
1000
0001
0000
0000
0000
,  // measure 6
0200
0310
0020
0130
,  // measure 7
0010
0100
0000
0100
0010
0000
0000
0000
,  // measure 8
0110
0000
0000
1000
0000
0000
0000
0000
,  // measure 9
1100
0110
0011
0110
,  // measure 10
1100
0000
0000
1000
0000
0000
0000
0000
,  // measure 11
1010
0110
0101
0110
,  // measure 12
2000
3001
0002
1003
,  // measure 13
0001
1000
0000
1000
0001
0000
0000
0000
,  // measure 14
0002
1003
2000
3001
,  // measure 15
1000
0001
0000
0001
1000
0000
1000
0000
,  // measure 16
1100
0000
0000
0100
0000
0000
0000
0000
,  // measure 17
0110
0011
0101
0110
,  // measure 18
1010
0000
0000
0010
0000
0000
0000
0000
,  // measure 19
1010
0110
0101
0110
,  // measure 20
2002
0000
0000
0003
0200
0000
0000
3000
,  // measure 21
0020
0000
0000
0330
,  // measure 22
0022
0000
0000
0030
2000
0000
0000
0003
,  // measure 23
0020
0000
0000
0000
0000
0000
0000
3030
,  // measure 24
1000
0010
0100
0001
,  // measure 25
0101
0011
0101
0011
,  // measure 26
0001
0010
0100
1000
,  // measure 27
1100
1010
1100
1010
,  // measure 28
1000
0001
0100
0010
,  // measure 29
0110
1001
0110
1001
,  // measure 30
0100
0010
0100
0001
,  // measure 31
1001
0110
1001
0110
,  // measure 32
1000
0001
1000
1000
,  // measure 33
0001
1000
0001
0001
,  // measure 34
0100
0010
0100
0100
,  // measure 35
0110
0110
1001
1001
,  // measure 36
1000
0100
0010
0010
,  // measure 37
0100
1000
0010
0010
,  // measure 38
0100
0001
0010
0010
,  // measure 39
0011
0011
1001
1001
;
