#VERSION:0.82;
#TITLE:Do What U Want (feat. R. Kelly);
#SUBTITLE:;
#ARTIST:Lady Gaga;
#TITLETRANSLIT:;
#SUBTITLETRANSLIT:;
#ARTISTTRANSLIT:;
#GENRE:R&B;
#ORIGIN:;
#CREDIT:chewi;
#BANNER:Do What U Want (feat. R. Kelly).png;
#BACKGROUND:Do What U Want (feat. R. Kelly)-bg.png;
#PREVIEWVID:;
#JACKET:Do What U Want (feat. R. Kelly)-jacket.png;
#CDIMAGE:;
#DISCIMAGE:;
#LYRICSPATH:;
#CDTITLE:cdtitle.png;
#MUSIC:Do What U Want (feat. R. Kelly).ogg;
#OFFSET:-0.100000;
#SAMPLESTART:59.175999;
#SAMPLELENGTH:15.000000;
#SELECTABLE:YES;
#BPMS:0.000=97.500;
#STOPS:;
#DELAYS:;
#WARPS:;
#TIMESIGNATURES:0.000=4=4;
#TICKCOUNTS:0.000=4;
#COMBOS:0.000=1;
#SPEEDS:0.000=1.000=0.000=0;
#SCROLLS:0.000=1.000;
#FAKES:;
#LABELS:0.000=Song Start;
#BGCHANGES:0.000=Do What U Want (feat. R. Kelly).avi=1.000=1=0=0=StretchNoLoop==CrossFade==,
99999=-nosongbg-=1.000=0=0=0 // don't automatically add -songbackground-
;
#KEYSOUNDS:;
#ATTACKS:
;

//---------------dance-single - ----------------
#NOTEDATA:;
#CHARTNAME:;
#STEPSTYPE:dance-single;
#DESCRIPTION:;
#CHARTSTYLE:;
#DIFFICULTY:Beginner;
#METER:1;
#RADARVALUES:0.060975,0.057354,0.000000,0.106706,0.000000,36.000000,0.000000,12.000000,0.000000,0.000000,0.000000,0.000000,0.000000,0.060975,0.057354,0.000000,0.106706,0.000000,36.000000,0.000000,12.000000,0.000000,0.000000,0.000000,0.000000,0.000000;
#CREDIT:;
#NOTES:
0000
0000
0000
0000
,
0000
0000
0000
0000
,
0000
0000
0000
0000
,
0000
0000
0000
0000
,
0010
0000
0000
0000
,
0100
0000
0000
0000
,
0010
0000
0000
0000
,
0100
0000
0000
0000
,
2000
0000
0000
3000
,
1000
0000
0000
0000
,
0002
0000
0000
0003
,
0001
0000
0000
0000
,
0200
0000
0000
0300
,
0100
0000
0000
0000
,
0020
0000
0000
0030
,
0010
0000
0000
0000
,
2000
0000
0000
0000
,
0000
0000
0000
3000
,
0002
0000
0000
0000
,
0000
0000
0000
0003
,
0200
0000
0000
0000
,
0000
0000
0000
0300
,
0020
0000
0000
0000
,
0000
0000
0000
0030
,
0010
0000
0000
0000
,
1000
0000
0000
0000
,
0100
0000
0000
0000
,
0001
0000
0000
0000
,
0010
0000
0000
0000
,
0001
0000
0000
0000
,
0100
0000
0000
0000
,
1000
0000
0000
0000
,
0020
0000
0000
0030
,
0010
0000
0000
0000
,
0020
0000
0000
0030
,
0010
0000
0000
0000
,
0200
0000
0000
0300
,
0100
0000
0000
0000
,
0200
0000
0000
0300
,
0100
0000
0000
0000
,
0010
0000
0000
0000
,
1000
0000
0000
0000
,
0010
0000
0000
0000
,
0001
0000
0000
0000
;

//---------------dance-single - ----------------
#NOTEDATA:;
#CHARTNAME:;
#STEPSTYPE:dance-single;
#DESCRIPTION:;
#CHARTSTYLE:;
#DIFFICULTY:Easy;
#METER:2;
#RADARVALUES:0.121949,0.114708,0.000000,0.124490,0.000000,82.000000,0.000000,14.000000,0.000000,0.000000,0.000000,0.000000,0.000000,0.121949,0.114708,0.000000,0.124490,0.000000,82.000000,0.000000,14.000000,0.000000,0.000000,0.000000,0.000000,0.000000;
#CREDIT:;
#NOTES:
0000
0000
0000
0000
,
0000
0000
0000
0000
,
0000
0000
0000
0000
,
0000
0000
0000
0000
,
1000
1000
0000
0000
,
0010
0010
0000
0000
,
0100
0100
0000
0000
,
0001
0001
0000
0000
,
0000
1000
0000
1000
,
0000
0001
0000
0001
,
0000
0100
0000
0100
,
0200
0000
0000
0300
,
0000
0010
0000
0010
,
0000
1000
0000
1000
,
0000
0001
0000
0001
,
0002
0000
0000
0003
,
0002
0003
0001
0000
,
2000
3000
1000
0000
,
1000
0010
0100
0000
,
0100
0001
0100
0000
,
0002
0003
0001
0000
,
2000
3000
1000
0000
,
0001
0010
0100
0000
,
0100
1000
0100
0000
,
2000
0000
0000
3000
,
1000
0001
1000
0000
,
0002
0000
0000
0003
,
1000
0001
1000
0000
,
0020
0000
0000
0030
,
0100
0010
0100
0000
,
0200
0000
0000
0300
,
0010
0100
0010
0000
,
0020
0000
0000
0030
,
1000
0100
0001
0010
,
2000
0000
0000
3000
,
1000
0100
1000
0100
,
0020
0000
0000
0030
,
0001
0100
1000
0010
,
0002
0000
0000
0003
,
0100
0001
0100
0001
,
0100
0000
0000
0000
,
0100
0000
0000
0000
,
0010
0000
0000
0000
,
0010
0000
0000
0000
;

//---------------dance-single - ----------------
#NOTEDATA:;
#CHARTNAME:;
#STEPSTYPE:dance-single;
#DESCRIPTION:;
#CHARTSTYLE:;
#DIFFICULTY:Medium;
#METER:5;
#RADARVALUES:0.207060,0.229417,0.062245,0.195627,0.000000,134.000000,7.000000,22.000000,0.000000,0.000000,0.000000,0.000000,0.000000,0.207060,0.229417,0.062245,0.195627,0.000000,134.000000,7.000000,22.000000,0.000000,0.000000,0.000000,0.000000,0.000000;
#CREDIT:;
#NOTES:
0000
0000
0000
0000
,
0000
0000
0000
0000
,
0000
0000
0000
0000
,
0000
0000
0000
0000
,
2000
3100
0002
0103
,
2000
0100
3100
0000
,
0002
0013
2000
3010
,
0002
0010
0013
0000
,
0010
0000
0000
0010
,
0100
0000
0000
0100
,
1000
0000
0000
0000
,
1000
0010
0100
0001
,
0100
0000
0000
0100
,
0010
0000
0000
0010
,
0100
0000
0001
1000
,
0100
0010
0100
1000
,
2001
0001
0001
3001
,
1002
1000
1000
1003
,
0102
0100
0100
0103
,
0201
0001
0001
0301
,
2001
0001
0001
3001
,
1002
1000
1000
1003
,
1020
1000
1000
1000
,
2000
0000
0000
3030
,
2000
3100
0010
0001
,
0001
0010
0001
0000
0010
0000
0000
0000
,
0002
0103
0100
0010
,
1000
0010
1000
0000
0010
0000
0000
0000
,
2000
3001
1000
0100
,
1000
0100
1000
0000
0010
0000
0000
0000
,
0020
0130
0001
0100
,
0010
0100
0001
0000
1000
0000
0000
0000
,
0001
1000
0010
0100
,
0020
1000
0100
1030
,
1000
0001
0010
0100
,
0020
0001
0100
0031
,
0001
1000
0010
0100
,
0200
0001
0010
0301
,
0100
0010
1000
0001
,
2000
0010
0100
3010
,
0010
0000
0000
0100
,
0001
0000
0000
0010
,
1000
0000
0000
0100
,
0001
0000
0000
0000
;

//---------------dance-single - ----------------
#NOTEDATA:;
#CHARTNAME:;
#STEPSTYPE:dance-single;
#DESCRIPTION:;
#CHARTSTYLE:;
#DIFFICULTY:Hard;
#METER:8;
#RADARVALUES:0.287089,0.267653,0.080029,0.266764,0.017784,187.000000,9.000000,30.000000,0.000000,0.000000,0.000000,0.000000,0.000000,0.287089,0.267653,0.080029,0.266764,0.017784,187.000000,9.000000,30.000000,0.000000,0.000000,0.000000,0.000000,0.000000;
#CREDIT:;
#NOTES:
// measure 0
0000
0000
0000
0000
,  // measure 1
0000
0000
0000
0000
,  // measure 2
0000
0000
0000
0000
,  // measure 3
0000
0000
0000
0000
,  // measure 4
2000
3010
0020
0130
,  // measure 5
0200
0001
0301
0000
,  // measure 6
0002
0013
0020
0130
,  // measure 7
0200
1000
1300
0000
,  // measure 8
1000
0000
0100
0000
0010
0100
1000
0000
,  // measure 9
0010
0000
0100
0000
0001
0100
0010
0000
,  // measure 10
1000
0000
0001
0000
1000
0100
0010
0000
,  // measure 11
0001
0000
1000
0000
0001
0100
0010
0000
,  // measure 12
0100
0000
0010
0000
1000
0010
0100
0000
,  // measure 13
0001
0000
0100
0000
0010
0100
0001
0000
,  // measure 14
1000
0000
0100
0000
0010
0100
1000
0000
,  // measure 15
0001
0000
0010
0000
0100
1000
0001
0000
,  // measure 16
1002
1000
1000
1000
,  // measure 17
0203
0010
0001
0310
,  // measure 18
0120
1000
0100
1000
,  // measure 19
2030
0100
0010
3100
,  // measure 20
1002
0010
1000
0100
,  // measure 21
0203
0010
0001
0310
,  // measure 22
0120
1000
0001
1000
,  // measure 23
2000
0000
0000
3030
,  // measure 24
1000
0100
0010
0100
1000
0000
0100
0000
,  // measure 25
1000
0001
0100
0001
1000
0000
0001
0000
,  // measure 26
0001
0000
0000
0010
0000
0000
0100
0000
1000
0000
0000
0000
1001
0000
0000
0000
,  // measure 27
0001
0000
0000
0100
0000
0000
0010
0000
1000
0000
0000
0000
1001
0000
0000
0000
,  // measure 28
0001
0100
0010
0100
0001
0000
0100
0000
,  // measure 29
0001
1000
0100
1000
0001
0000
1001
0000
,  // measure 30
0001
0000
0000
1000
0000
0000
0100
0000
0010
0000
0000
0000
0110
0000
0000
0000
,  // measure 31
1000
0000
0000
0001
0000
0000
0100
0000
0010
0000
0000
0000
0110
0000
0000
0000
,  // measure 32
1000
0010
1000
0000
0001
0100
0001
0000
,  // measure 33
2000
3200
0320
0032
,  // measure 34
1003
0100
1000
0000
0001
0100
0001
0000
,  // measure 35
0200
0320
2030
3002
,  // measure 36
1003
0100
0010
0000
0001
0010
0100
0000
,  // measure 37
2000
3020
0032
0203
,  // measure 38
1300
0010
0100
0000
0100
0010
1000
0000
,  // measure 39
0200
0302
0023
2030
,  // measure 40
3100
0100
0100
0000
0010
0001
1000
0000
,  // measure 41
0100
0100
0100
0000
0100
1000
0001
0000
,  // measure 42
1000
0001
0100
0010
1000
0001
1000
0000
,  // measure 43
0001
0000
0000
0000
;
