#TITLE:Distance;
#SUBTITLE:;
#ARTIST:西野カナ;
#TITLETRANSLIT:;
#SUBTITLETRANSLIT:;
#ARTISTTRANSLIT:Nishino Kana;
#CREDIT:Chewi☆;
#BANNER:Distance.png;
#BACKGROUND:Distance-bg.png;
#LYRICSPATH:;
#CDTITLE:;
#MUSIC:Distance.mp3;
#OFFSET:-0.567;
#SAMPLESTART:54.348;
#SAMPLELENGTH:15.000;
#SELECTABLE:YES;
#BPMS:0.000=70.000,64.000=140.000;
#STOPS:;
#BGCHANGES:;

//---------------dance-single - Chewi----------------
#NOTES:
     dance-single:
     Chewi:
     Easy:
     3:
     0.095,0.134,0.079,0.101,0.000: // measure 1
0000
0000
0000
0000
,  // measure 2
0000
0000
0000
0000
,  // measure 3
0000
0000
0000
0000
,  // measure 4
0000
0000
0000
0000
,  // measure 5
2000
0000
0000
3000
,  // measure 6
0002
0000
0000
0003
,  // measure 7
0200
0000
0000
0300
,  // measure 8
0020
0000
0000
0030
,  // measure 9
0020
0000
0000
0030
,  // measure 10
2000
0000
0000
3000
,  // measure 11
0002
0000
0000
0003
,  // measure 12
2000
0000
0000
3000
,  // measure 13
1000
0000
0001
0000
,  // measure 14
0010
0000
0100
0000
,  // measure 15
1000
0000
0001
0000
,  // measure 16
0100
0100
0100
0000
,  // measure 17
0010
0000
0000
0000
,  // measure 18
0110
0000
0000
0000
,  // measure 19
0010
0000
0100
0000
,  // measure 20
1000
0000
0000
0000
,  // measure 21
1001
0000
0100
0000
,  // measure 22
0100
0000
0100
0000
,  // measure 23
1001
0000
0010
0000
,  // measure 24
0010
0000
0010
0000
,  // measure 25
0010
0000
0000
0000
,  // measure 26
1001
0000
0000
0000
,  // measure 27
1000
0000
0000
0000
,  // measure 28
0110
0000
0000
0000
,  // measure 29
1001
0000
0010
0000
,  // measure 30
0010
0000
0010
0000
,  // measure 31
1001
0000
0010
0000
,  // measure 32
0010
0000
0010
0000
,  // measure 33
0020
0000
0000
0000
,  // measure 34
0000
0000
0000
0000
,  // measure 35
0030
0000
0000
0000
;

//---------------dance-single - Chewi----------------
#NOTES:
     dance-single:
     Chewi:
     Hard:
     9:
     0.239,0.325,0.101,0.022,0.067: // measure 1
0000
0000
0000
0000
,  // measure 2
0000
0000
0000
0000
,  // measure 3
0000
0000
0000
0000
,  // measure 4
0000
0000
0000
0000
,  // measure 5
1000
0000
0000
1000
0000
0000
1000
0000
0000
0000
0000
0000
0000
0000
0000
0000
,  // measure 6
0001
0000
0000
0001
0000
0000
0001
0000
0000
0000
0000
0000
0000
0000
0000
0000
,  // measure 7
0100
0000
0000
0100
0000
0000
0100
0000
0000
0000
0000
0000
0000
0000
0000
0000
,  // measure 8
0010
0000
0000
0010
0000
0000
0010
0000
0000
0000
0000
0000
0000
0000
0000
0000
,  // measure 9
1000
0000
0000
0010
0000
0000
1000
0000
0010
0000
0000
0010
0000
0000
0010
0000
,  // measure 10
0100
0000
0000
0001
0000
0000
0100
0000
0001
0000
0000
0001
0000
0000
0001
0000
,  // measure 11
1000
0000
0000
0001
0000
0000
0010
0000
0100
0000
0000
0100
0000
0000
0100
0000
,  // measure 12
1000
0000
0000
0100
0000
0000
0010
0000
0001
0000
0000
0001
0000
0000
0001
0000
,  // measure 13
1000
1000
0001
0001
0100
0100
0010
0010
,  // measure 14
1000
1000
0100
0100
0010
0010
0001
0001
,  // measure 15
1000
0100
0001
0100
1000
0010
0001
0010
,  // measure 16
1000
0010
0100
0001
1000
0000
0000
0000
,  // measure 17
0001
0000
1000
0100
0000
0100
1000
0000
,  // measure 18
0010
0000
0100
0001
0000
0001
0100
0000
,  // measure 19
0010
0000
1000
0100
0000
0100
1000
0000
,  // measure 20
0010
0000
0100
0001
0000
0001
0100
0000
,  // measure 21
0010
1001
0100
1001
,  // measure 22
1000
1100
0001
0101
,  // measure 23
0100
0100
0010
0010
,  // measure 24
1000
1000
0001
0001
,  // measure 25
1000
0000
0001
1000
0000
1000
0100
0000
,  // measure 26
0010
0000
0001
1000
0000
1000
0010
0000
,  // measure 27
0100
0000
0001
0100
0000
0100
0010
0000
,  // measure 28
1000
0000
0001
1000
0000
1000
0100
0000
,  // measure 29
0010
1001
0100
1001
,  // measure 30
1000
1010
0001
0011
,  // measure 31
1000
1000
0100
0100
,  // measure 32
0010
0010
0001
0001
,  // measure 33
2002
0000
0000
0000
,  // measure 34
0000
0000
0000
0000
,  // measure 35
3003
0000
0000
0000
;

//---------------dance-single - Chewi----------------
#NOTES:
     dance-single:
     Chewi:
     Medium:
     6:
     0.212,0.248,0.146,0.067,0.067: // measure 1
0000
0000
0000
0000
,  // measure 2
0000
0000
0000
0000
,  // measure 3
0000
0000
0000
0000
,  // measure 4
0000
0000
0000
0000
,  // measure 5
1000
0000
0000
1000
0000
0000
0000
0000
0000
0000
0000
0000
0000
0000
0000
0000
,  // measure 6
0100
0000
0000
0100
0000
0000
0000
0000
0000
0000
0000
0000
0000
0000
0000
0000
,  // measure 7
0010
0000
0000
0010
0000
0000
0000
0000
0000
0000
0000
0000
0000
0000
0000
0000
,  // measure 8
0001
0000
0000
0001
0000
0000
0000
0000
0000
0000
0000
0000
0000
0000
0000
0000
,  // measure 9
0100
0000
0000
0100
0000
0000
0000
0000
0100
0000
0000
0010
0000
0000
0000
0000
,  // measure 10
0010
0000
0000
0010
0000
0000
0000
0000
0010
0000
0000
1000
0000
0000
0000
0000
,  // measure 11
1000
0000
0000
1000
0000
0000
0000
0000
1000
0000
0000
0001
0000
0000
0000
0000
,  // measure 12
0001
0000
0000
0001
0000
0000
0000
0000
0001
0000
0000
1000
0000
0000
0000
0000
,  // measure 13
1000
0000
0001
0000
1000
0100
0010
0000
,  // measure 14
0001
0000
1000
0000
0001
0100
0010
0000
,  // measure 15
1000
1000
1000
0000
0100
0000
1100
0000
,  // measure 16
0001
0001
0001
0000
0100
0000
0101
0000
,  // measure 17
0100
0100
0200
0301
,  // measure 18
0001
0001
0002
1003
,  // measure 19
1000
0000
0100
0000
0010
0100
1000
0000
,  // measure 20
0010
1000
1001
0000
,  // measure 21
0100
1001
0100
1001
,  // measure 22
0010
1001
0010
1001
,  // measure 23
1000
0001
1000
0000
0001
1000
0001
0000
,  // measure 24
1000
0010
0100
0001
,  // measure 25
0010
0010
0020
0031
,  // measure 26
0001
0001
0002
1003
,  // measure 27
1000
0000
0100
0000
0010
0100
1000
0000
,  // measure 28
0010
1000
1001
0000
,  // measure 29
0100
1001
0100
1001
,  // measure 30
0010
1001
0010
1001
,  // measure 31
1000
0001
1000
0000
0001
1000
0001
0000
,  // measure 32
1000
0010
0100
0001
,  // measure 33
2002
0000
0000
0000
,  // measure 34
0000
0000
0000
0000
,  // measure 35
3003
0000
0000
0000
;

//---------------dance-single - Chewi----------------
#NOTES:
     dance-single:
     Chewi:
     Beginner:
     1:
     0.074,0.096,0.045,0.056,0.000: // measure 1
0000
0000
0000
0000
,  // measure 2
0000
0000
0000
0000
,  // measure 3
0000
0000
0000
0000
,  // measure 4
0000
0000
0000
0000
,  // measure 5
2000
0000
0000
3000
,  // measure 6
1000
0000
0000
0000
,  // measure 7
0002
0000
0000
0003
,  // measure 8
0001
0000
0000
0000
,  // measure 9
0200
0000
0000
0300
,  // measure 10
0100
0000
0000
0000
,  // measure 11
0020
0000
0000
0030
,  // measure 12
0010
0000
0000
0000
,  // measure 13
1000
0000
0000
0000
,  // measure 14
0001
0000
0000
0000
,  // measure 15
1000
0000
0000
0000
,  // measure 16
0001
0000
0000
0000
,  // measure 17
0010
0000
0000
0000
,  // measure 18
0110
0000
0000
0000
,  // measure 19
0010
0000
0000
0000
,  // measure 20
0110
0000
0000
0000
,  // measure 21
1000
0000
1000
0000
,  // measure 22
1000
0000
1000
0000
,  // measure 23
0001
0000
0001
0000
,  // measure 24
0001
0000
0001
0000
,  // measure 25
0001
0000
0000
0000
,  // measure 26
1001
0000
0000
0000
,  // measure 27
0001
0000
0000
0000
,  // measure 28
1001
0000
0000
0000
,  // measure 29
0100
0000
0100
0000
,  // measure 30
0100
0000
0100
0000
,  // measure 31
0010
0000
0010
0000
,  // measure 32
0010
0000
0010
0000
,  // measure 33
0020
0000
0000
0000
,  // measure 34
0000
0000
0000
0000
,  // measure 35
0030
0000
0000
0000
;
