#TITLE:Disco the ground;
#SUBTITLE:;
#ARTIST:sampling disaster 咲-SAKI-;
#TITLETRANSLIT:;
#SUBTITLETRANSLIT:;
#ARTISTTRANSLIT:;
#GENRE:;
#CREDIT:Chewi☆;
#MENUCOLOR:;
#METERTYPE:DDR X;
#BANNER:Disco the ground.png;
#BACKGROUND:Disco the ground-bg.png;
#LYRICSPATH:;
#CDTITLE:;
#MUSIC:Disco the ground.mp3;
#OFFSET:-1.772;
#SAMPLESTART:85.773;
#SAMPLELENGTH:15.000;
#SELECTABLE:YES;
#LISTSORT:;
#BPMS:0.000=140.000;
#STOPS:144.000=1.286
;
#BGCHANGES:-4.250=Disco the ground.avi=1.000=1=0=1,
293.000=Disco the ground-bg.png=1.000=1=0=1,
99999=-nosongbg-=1.000=0=0=0 // don't automatically add -songbackground-
;
#ATTACKS:;

//---------------dance-single - Chewi----------------
#NOTES:
     dance-single:
     Chewi:
     Hard:
     11:
     0.488,0.477,0.280,0.179,0.039: // measure 1
0000
0000
0000
0000
,  // measure 2
0000
0000
0000
0000
,  // measure 3
0000
0000
0000
0000
,  // measure 4
0000
0000
0000
0000
,  // measure 5
1000
0000
0000
1000
0000
0000
1000
0000
0001
0000
1000
0000
0001
0000
0000
0000
,  // measure 6
0001
0000
0000
0001
0000
0000
0001
0000
1000
0000
0000
0000
1001
0000
0000
0000
,  // measure 7
0100
0000
0000
0100
0000
0000
0100
0000
0010
0000
0100
0000
0010
0000
0100
0000
,  // measure 8
0010
0010
1000
1000
0001
0001
1001
0000
,  // measure 9
2200
0000
0000
3300
,  // measure 10
0010
0001
0010
0100
1000
1000
1000
0000
,  // measure 11
1000
0010
0001
0100
,  // measure 12
1000
0100
0010
0100
1000
1000
1000
0000
,  // measure 13
0100
0001
0010
1000
,  // measure 14
0100
0010
0100
1000
0001
0001
0001
0000
,  // measure 15
0100
0010
1000
0001
,  // measure 16
1000
0010
0100
0001
0010
0010
0010
0000
,  // measure 17
0100
0001
0010
1000
,  // measure 18
0100
0001
0100
1000
0100
1000
0100
0000
,  // measure 19
1000
0010
0001
0010
1000
0010
1000
0000
,  // measure 20
1000
0010
0100
0001
0010
0100
0010
0000
,  // measure 21
0001
0010
0100
1000
0100
1000
0100
0000
,  // measure 22
1000
0001
0100
0010
1000
0001
1000
0000
,  // measure 23
0010
0100
0001
0100
0010
1000
0001
0000
,  // measure 24
0100
0010
1000
0001
0010
0100
0010
0000
,  // measure 25
0001
0010
0100
1000
0010
0100
0010
0000
,  // measure 26
0010
0010
0010
0000
2000
0000
3100
0000
,  // measure 27
0010
0001
0010
0100
1000
0010
1010
0000
,  // measure 28
0100
0100
0100
0000
0020
0000
1030
0000
,  // measure 29
1000
0010
0100
0001
0100
0010
1010
0000
,  // measure 30
0002
0000
0013
0000
0100
1000
1000
0000
,  // measure 31
0010
0100
0001
0000
0010
0001
0011
0000
,  // measure 32
0002
0000
1003
0000
0010
0100
0010
0000
,  // measure 33
1000
0010
0100
0000
0001
0100
0101
0000
,  // measure 34
2001
0000
3100
0000
0010
0001
0011
0000
,  // measure 35
1002
0000
0103
0000
1000
0010
1010
0000
,  // measure 36
0010
0000
1000
0000
0100
0001
0010
0000
,  // measure 37
0000
0000
0210
0000
0310
0000
0010
0001
,  // measure 38
0011
0000
0102
0000
0103
0000
0100
0010
,  // measure 39
1010
1001
1100
0101
,  // measure 40
1001
0000
0200
0300
0200
0300
0200
0300
,  // measure 41
0000
0000
0000
0000
0010
0000
0000
0010
0000
0000
0010
0000
0001
0000
0010
0000
,  // measure 42
0001
0000
0000
0000
1000
0000
0000
0100
0000
0000
1000
0000
1000
0000
0000
0000
,  // measure 43
1010
0000
0000
0000
1000
0000
0000
1000
0000
0000
1000
0000
0100
0000
1000
0000
,  // measure 44
0010
0000
0000
0000
0100
0000
0000
0001
0000
0000
1000
0000
1000
0000
0000
0000
,  // measure 45
1001
0000
0000
0000
0010
0000
0000
0010
0000
0000
0010
0000
0100
0000
0010
0000
,  // measure 46
0001
0000
0000
0000
0100
0000
0000
0010
0000
0000
1000
0000
1000
0000
0000
0000
,  // measure 47
1010
0000
0000
0000
1000
0000
0000
1000
0000
0000
1000
0000
0010
0000
0100
0000
,  // measure 48
0010
2020
0000
0000
,  // measure 49
3030
0000
1000
0100
0010
0100
1000
0010
,  // measure 50
0100
0001
0101
1000
,  // measure 51
1100
0000
0010
0100
1000
0010
0100
0001
,  // measure 52
0100
0010
1001
0100
,  // measure 53
1001
0000
1000
0100
0010
0001
0010
0100
,  // measure 54
1000
0001
1100
1000
,  // measure 55
0101
0000
0100
0010
0100
0001
0010
0100
,  // measure 56
1000
0020
2030
3200
,  // measure 57
0302
0000
0013
0100
0010
0001
0010
0100
,  // measure 58
1000
0010
1100
0010
,  // measure 59
0101
0000
1000
0010
0100
0001
1000
0100
,  // measure 60
0010
0001
1100
1000
,  // measure 61
0101
0000
0100
0010
1000
0001
0010
0100
,  // measure 62
1000
0010
0101
0010
,  // measure 63
1100
0000
1000
0010
0100
0001
1000
0100
,  // measure 64
0010
0002
0203
2300
,  // measure 65
3020
0000
0130
0000
0010
0000
0100
0010
,  // measure 66
1000
0000
1000
0100
0010
0001
0010
0100
,  // measure 67
1000
0000
1000
0000
0010
0000
1000
0010
,  // measure 68
0100
0000
0001
0100
0010
1000
0001
0010
,  // measure 69
0100
0000
0100
0000
0010
0000
0100
0010
,  // measure 70
0001
0000
0100
0010
1000
0001
0010
0100
,  // measure 71
1000
0000
1000
0000
0010
0000
1000
0010
,  // measure 72
0100
0000
0001
0100
0010
1000
0001
0010
,  // measure 73
0100
1100
0000
0000
;

//---------------dance-single - Chewi----------------
#NOTES:
     dance-single:
     Chewi:
     Medium:
     7:
     0.393,0.393,0.295,0.078,0.000:
0000
0000
0000
0000
,
0000
0000
0000
0000
,
0000
0000
0000
0000
,
0000
0000
0000
0000
,
1000
0000
1000
0000
1000
0100
0010
0000
,
0001
0000
0001
0000
0001
0100
0010
0000
,
1000
0000
1000
0000
1000
0010
0100
0000
,
0001
0000
0001
0000
0001
0010
0100
0000
,
0220
0000
0000
0330
,
0010
0000
0100
0000
0010
0100
0010
0000
,
0001
0010
0100
1000
,
0001
0000
0100
0000
0010
0100
0001
0000
,
0100
0010
1000
0001
,
1000
0000
0100
0000
0010
0100
1000
0000
,
0010
0100
0001
1000
,
0100
0000
0010
0000
0100
1000
0010
0000
,
1010
0101
1001
1100
,
0010
0000
0010
0000
0010
0100
0010
0000
,
0100
0010
0100
0000
0110
0000
1001
0000
,
1000
0000
1000
0000
0001
1000
0001
0000
,
1000
0001
1000
0000
1001
0000
1001
0000
,
1000
0000
0010
0000
0100
0001
0010
0000
,
0100
0010
0001
0011
,
0001
0000
0010
0000
0100
1000
0010
0000
,
1000
0010
0100
0101
,
1001
0000
1000
0000
1000
0100
1000
0000
,
0100
0010
0001
0100
,
0110
0000
0100
0000
0010
0100
0010
0000
,
1000
0100
0010
0001
,
0011
0000
0100
0000
0010
1000
0100
0000
,
0010
0100
1000
0001
,
1100
0000
0010
0000
0100
0010
1000
0000
,
0001
0010
0100
1000
,
1002
0100
1000
0010
,
2003
0010
0001
0100
,
3020
0100
1000
0130
,
0000
0120
1000
0100
,
1000
2030
0100
0010
,
3100
0001
0010
1000
,
0100
0000
0200
0300
0200
0300
0200
0300
,
0000
0010
0100
0010
,
0001
0000
0100
0000
0010
0000
1000
0100
,
0010
0100
1000
0010
,
0100
0000
0010
0000
1000
0000
0010
0100
,
0001
0000
1000
0000
0100
0000
0010
0001
,
0100
0010
0100
0001
,
0011
0000
0001
0000
0010
0000
0100
1000
,
0010
1000
0100
0010
,
0011
1001
0100
1001
,
0010
0000
1000
0010
1000
0000
0001
0100
,
0001
1000
0010
0100
,
0001
0000
1000
0100
1000
0000
0001
0010
,
0001
0010
0100
1000
,
0001
0000
1000
0010
1000
0000
0001
0100
,
0001
0100
0010
1000
,
0001
1001
1001
0110
,
0110
0011
0000
1100
,
0000
0000
1000
0000
0001
0000
1000
0010
,
0100
0001
0100
0010
,
1000
0000
0001
0000
0010
0000
0100
1000
,
0010
1000
0100
0010
,
0100
0000
1000
0000
0001
0000
0100
0010
,
0100
0001
0010
0100
,
1000
1010
0101
1001
,
1100
0000
0010
0000
0010
0000
0010
0100
,
0010
0000
0100
0010
0100
0000
0110
0000
,
1001
0000
0001
0000
0001
0000
0001
1000
,
0001
0000
1000
0001
1000
0000
1001
0000
,
1001
0000
1000
0000
1000
0000
1000
0010
,
0100
0000
0001
0000
0001
0000
0001
0010
,
0100
1000
1100
0001
,
0101
0000
0100
0010
1000
0000
0010
0100
,
0001
1001
0000
0000
;

//---------------dance-single - Chewi----------------
#NOTES:
     dance-single:
     Chewi:
     Beginner:
     2:
     0.144,0.197,0.047,0.124,0.000:
0000
0000
0000
0000
,
0000
0000
0000
0000
,
0000
0000
0000
0000
,
0000
0000
0000
0000
,
1000
0000
1000
0000
,
0100
0000
0100
0000
,
0001
0000
0001
0000
,
0010
0000
0010
0000
,
2002
0000
0000
3003
,
1000
0000
1000
0000
,
0000
0000
0000
0000
,
0100
0000
0001
0000
,
0000
0000
0000
0000
,
0001
0000
0001
0000
,
0000
0000
0000
0000
,
0100
0000
1000
0000
,
0220
0000
0000
0330
,
1000
0000
0001
0000
,
1000
0000
0001
0000
,
0100
0000
0010
0000
,
0100
0000
0010
0000
,
1000
0000
0100
0000
,
0010
0000
0001
0000
,
0100
0000
0100
0000
,
0010
0000
0010
0000
,
1000
0000
0001
0000
,
0100
0000
0100
0000
,
0010
0000
0100
0000
,
0010
0000
1000
0000
,
1000
0000
0001
0000
,
1000
0000
0010
0000
,
0100
0000
0010
0000
,
0100
0000
1000
0000
,
2000
0000
0000
3000
,
0002
0000
0000
0003
,
0200
0000
0000
0300
,
0000
0020
0000
0000
,
0030
2000
0000
0000
,
3000
0001
0000
1000
,
0000
0200
0000
0000
,
0300
0010
0000
0010
,
0000
0001
0000
0001
,
0000
0100
0000
0100
,
0000
1000
0000
1000
,
0000
1000
0000
0010
,
0000
0001
0000
0010
,
0000
0010
0000
0010
,
0000
0220
0000
0000
,
0330
0010
0000
0010
,
0000
0000
0000
0000
,
0000
1000
0000
0010
,
0000
0000
0000
0000
,
0000
0001
0000
0001
,
0000
0000
0000
0000
,
0000
0001
0000
0100
,
0000
2002
0000
0000
,
3003
0100
0000
0100
,
0000
0000
0000
0000
,
0000
0010
0000
0001
,
0000
0000
0000
0000
,
0000
0100
0000
0100
,
0000
0000
0000
0000
,
0000
1000
0000
0100
,
0000
0220
0000
0000
,
0330
1000
0000
0001
,
0000
1000
0000
0001
,
0000
0100
0000
0010
,
0000
0100
0000
0010
,
0000
1000
0000
0010
,
0000
1000
0000
0010
,
0000
0001
0000
0001
,
0000
0001
0000
0010
,
0000
1001
0000
0000
;

//---------------dance-single - Chewi----------------
#NOTES:
     dance-single:
     Chewi:
     Easy:
     4:
     0.239,0.281,0.047,0.202,0.000:
0000
0000
0000
0000
,
0000
0000
0000
0000
,
0000
0000
0000
0000
,
0000
0000
0000
0000
,
1000
0100
1000
0000
,
0100
0001
0100
0000
,
0001
0010
0001
0000
,
0010
1000
0010
0000
,
2002
0000
0000
3003
,
1000
1000
1000
1000
,
0000
0000
0000
0000
,
0100
0010
0001
0010
,
0000
0000
0000
0000
,
0001
0001
0001
0001
,
0000
0000
0000
0000
,
0100
0010
1000
0010
,
0220
0000
0000
0330
,
1000
0100
0001
0100
,
1000
0100
0001
0010
,
1000
0010
0001
0010
,
1000
0010
0001
0100
,
1000
0100
1000
0100
,
0010
0100
1000
0010
,
0100
0001
0100
0001
,
0010
0100
0010
0001
,
2000
0000
3002
0000
,
0103
0100
0100
0000
,
0020
0000
0230
0000
,
0310
1000
0001
0000
,
2000
0000
3002
0000
,
1003
0100
1000
0000
,
0200
0000
0320
0000
,
0130
1000
0100
0000
,
2000
0000
0000
3000
,
0002
0000
0000
0003
,
0200
0000
0000
0300
,
0000
0020
0000
0000
,
0030
2000
0000
0000
,
3000
0001
0001
1000
,
1000
0000
0200
0300
0200
0300
0200
0300
,
0000
0010
0001
0010
,
0000
0001
0100
0001
,
0000
0100
1000
0100
,
0000
1000
0010
1000
,
0000
1000
0100
0010
,
0000
0001
0100
0010
,
0000
0010
0100
0010
,
0000
0220
0000
0000
,
0330
0010
0010
0010
,
0010
0000
0000
0000
,
0000
1000
0100
0010
,
0001
0000
0000
0000
,
0000
0001
0001
0001
,
0001
0000
0000
0000
,
0000
0001
1000
0100
,
1000
2002
0000
0000
,
3003
0100
0100
0100
,
0100
0000
0000
0000
,
0000
0010
0100
0001
,
0010
0000
0000
0000
,
0000
0100
0100
0100
,
0100
0000
0000
0000
,
0000
1000
0001
0100
,
0010
0220
0000
0000
,
0330
1000
0010
0001
,
0010
1000
0010
0001
,
0100
1000
0100
0001
,
0100
1000
0100
0001
,
0010
1000
0100
0010
,
0100
1000
0100
0010
,
0001
0001
0100
0001
,
0010
0001
0100
0010
,
1000
1001
0000
0000
;
