#TITLE:Digitank System;
#SUBTITLE:;
#ARTIST:DJ Mass MAD Izm*;
#TITLETRANSLIT:;
#SUBTITLETRANSLIT:;
#ARTISTTRANSLIT:;
#GENRE:;
#CREDIT:Chewi☆;
#MENUCOLOR:#FFFFFF;
#METERTYPE:DDR X;
#BANNER:Digitank System.png;
#BACKGROUND:Digitank System-bg.png;
#LYRICSPATH:;
#CDTITLE:./CDTITLES/DanceDanceRevolution skyMIX2 -FREEDOM-.png;
#MUSIC:Digitank System.mp3;
#OFFSET:-0.422;
#SAMPLESTART:24.789;
#SAMPLELENGTH:15.000;
#SELECTABLE:YES;
#LISTSORT:;
#DISPLAYBPM:128.000;
#BPMS:0.000=128.000;
#STOPS:;
#BGCHANGES:-12.000=X2_Rage.avi=1.000=0=0=1,
99999=-nosongbg-=1.000=0=0=0 // don't automatically add -songbackground-
;
#ATTACKS:;

//---------------dance-single - Chewi----------------
#NOTES:
     dance-single:
     Chewi:
     Beginner:
     3:
     0.133,0.151,0.024,0.016,0.000:
0000
0000
0000
0000
,
0000
0000
0000
0000
,
0000
0000
0000
0000
,
0000
0000
0000
0000
,
1000
0000
1000
0000
,
0010
0000
0010
0000
,
0100
0000
0100
0000
,
0100
0000
0100
0000
,
0010
0000
0100
0000
,
1000
0000
0001
0000
,
0001
0000
0010
0000
,
0100
0000
1000
0000
,
0100
0000
0100
0000
,
1000
0000
0001
0000
,
0100
0000
0010
0000
,
0010
0000
1000
0000
,
1000
0000
0001
0000
,
0001
0000
0010
0000
,
0001
0000
0100
0000
,
1000
0000
0010
0000
,
1000
0000
0100
0000
,
1000
0000
0010
0000
,
1000
0000
0100
0000
,
1000
0000
0010
0000
,
0100
0000
0010
0000
,
0001
0000
0100
0000
,
0001
0000
0100
0000
,
0001
0000
0010
0000
,
0001
0000
0100
0000
,
0001
0000
0100
0000
,
1000
0000
0100
0000
,
0001
0000
0010
0000
,
1000
0000
0010
0000
,
0010
0000
0000
0000
,
0100
0000
0000
0000
,
0001
0000
0000
0000
,
0010
0000
0100
0000
,
1000
0000
0010
0000
,
0001
0000
1000
0000
,
1000
0000
0010
0000
,
1000
0000
0001
0000
,
0010
0000
0010
0000
,
0010
0000
1000
0000
,
0001
0000
1000
0000
,
0001
0000
0010
0000
,
1001
0000
0000
0000
,
1000
0000
0010
0000
,
0110
0000
0000
0000
,
0001
0000
0100
0000
,
0001
0000
0100
0000
,
0010
0000
1000
0000
,
0100
0000
0010
0000
,
1000
0000
0010
0000
,
0010
0000
0010
0000
,
0100
0000
0100
0000
,
0001
0000
0100
0000
,
0100
0000
0010
0000
,
0001
0000
1000
0000
,
1000
0000
0001
0000
,
0100
0000
0001
0000
,
0010
0000
0001
0000
,
2002
0000
0000
0000
,
3003
0000
0000
0000
;

//---------------dance-single - Chewi----------------
#NOTES:
     dance-single:
     Chewi:
     Easy:
     5:
     0.281,0.277,0.065,0.244,0.000:
0000
0000
0000
0000
,
0000
0000
0000
0000
,
0000
0000
0000
0000
,
0000
0000
0000
0000
,
1000
0100
1000
0100
,
0010
0001
0010
0001
,
0100
0001
0100
0001
,
0100
1000
0100
1000
,
0010
0100
0100
0010
,
1000
0001
0001
1000
,
0002
0000
0023
0000
,
0230
0000
2300
0000
,
3100
0100
0100
0100
,
1000
1000
0002
0003
,
0100
0100
0020
0030
,
0010
0010
2000
3000
,
1000
1000
0002
0003
,
0002
0000
0023
0000
,
0032
0000
0203
0000
,
2300
0000
3020
0000
,
2030
0000
3200
0000
,
1300
0100
0010
0001
,
1000
0010
0100
0001
,
1000
0100
0010
1000
,
0100
0001
0010
0100
,
0001
0010
0100
1000
,
0001
0010
0100
1000
,
0001
1000
0010
0100
,
0001
1000
0100
0010
,
0002
0100
0100
0103
,
2000
0100
0100
3100
,
0002
0010
0010
0013
,
2000
0010
0010
3010
,
0020
0100
0000
0130
,
0200
0001
0000
0301
,
0002
1000
0000
1003
,
0020
1000
0100
1030
,
1000
0100
0010
0011
,
0001
0100
1000
0010
,
1000
0100
0010
1100
,
1000
0010
0001
0100
,
0010
0100
0010
0110
,
0010
0010
1000
1000
,
0001
0100
1000
1000
,
0001
1000
0010
0010
,
2002
0000
0000
3003
,
1000
0100
0010
0001
,
0220
0000
0000
0330
,
0001
0010
0100
1000
,
0001
0001
0100
0100
,
0010
0010
1000
1000
,
0100
0100
0010
0010
,
1000
0100
0010
0001
,
0010
0100
0010
1001
,
0100
0010
0100
1001
,
0001
0010
0100
0010
,
0100
1000
0010
0100
,
0001
0100
1000
0010
,
1000
0100
0001
0010
,
0100
0010
0001
1000
,
0010
0100
0001
1000
,
2002
0000
0000
0000
,
3003
0000
0000
0000
;

//---------------dance-single - Chewi----------------
#NOTES:
     dance-single:
     Chewi:
     Medium:
     8:
     0.372,0.378,0.325,0.179,0.000: // measure 1
0000
0000
0000
0000
,  // measure 2
0000
0000
0000
0000
,  // measure 3
0000
0000
0000
0000
,  // measure 4
0000
0000
0000
0000
,  // measure 5
1000
1100
0001
0101
,  // measure 6
0100
0100
0100
0000
0010
0010
0010
0000
,  // measure 7
1000
1010
0001
0011
,  // measure 8
0010
0010
0010
0000
0100
0100
0100
0000
,  // measure 9
0002
0010
1000
0103
,  // measure 10
2000
0100
0001
3010
,  // measure 11
0020
0100
0100
0130
,  // measure 12
0200
0010
0010
0310
,  // measure 13
1000
1000
0001
0001
1000
0001
1000
0000
,  // measure 14
0011
0100
1010
0000
,  // measure 15
1100
0010
0101
0000
,  // measure 16
1001
0110
1001
0000
,  // measure 17
0100
0001
0010
1000
,  // measure 18
1100
0010
0101
0000
,  // measure 19
0101
1000
1100
0000
,  // measure 20
0110
1001
0110
0000
,  // measure 21
0100
0001
0010
1000
,  // measure 22
0100
0010
0100
0000
1000
0000
1001
0000
,  // measure 23
0100
0010
0100
0000
0001
0000
1001
0000
,  // measure 24
1000
0100
0010
0101
,  // measure 25
0001
0100
0010
1000
,  // measure 26
0100
0000
0100
0000
0001
0100
0001
0000
,  // measure 27
0100
0000
0100
0000
0100
1000
0100
0000
,  // measure 28
1000
0000
0010
0000
0100
0001
0010
0000
,  // measure 29
0100
0000
0010
0000
0001
0010
0100
0000
,  // measure 30
1000
0100
1000
0000
0001
0000
0001
0000
,  // measure 31
0100
0001
0100
0000
0010
0000
0010
0000
,  // measure 32
1000
0001
1000
0000
0100
0000
0100
0000
,  // measure 33
0010
0101
0010
1100
,  // measure 34
0001
0000
1000
0000
0100
0100
0100
0000
,  // measure 35
1000
0000
0001
0000
0100
0100
0100
0000
,  // measure 36
0010
0000
0100
0000
0001
1000
0001
0000
,  // measure 37
0010
0000
0100
0000
1000
0001
1000
0000
,  // measure 38
2000
3200
2300
3002
,  // measure 39
0100
0100
0100
0000
0010
0000
0013
0000
,  // measure 40
2000
3200
2300
3200
,  // measure 41
0010
0010
0010
0000
0010
0000
0310
0000
,  // measure 42
0020
2030
3002
0023
,  // measure 43
0001
0001
0001
0000
0100
0000
0130
0000
,  // measure 44
0200
2300
3002
0023
,  // measure 45
0100
0100
0100
0000
1000
0000
1030
0000
,  // measure 46
0001
0101
1100
0101
,  // measure 47
1000
1010
0011
1010
,  // measure 48
0001
1001
1001
0011
,  // measure 49
1000
1100
1001
1001
,  // measure 50
0001
0010
0100
1000
0001
0000
1000
0000
,  // measure 51
1000
0100
0010
0001
0010
0000
0100
0000
,  // measure 52
0010
0101
0010
1100
,  // measure 53
1000
0100
0100
0001
,  // measure 54
0010
1000
0010
0001
0100
0000
0010
0000
,  // measure 55
1000
0100
1000
0100
,  // measure 56
0001
0100
1000
0100
0001
0000
0100
0000
,  // measure 57
0010
0100
0001
1000
,  // measure 58
0100
0010
0001
0010
0100
0000
1000
0000
,  // measure 59
0010
1100
0010
0101
,  // measure 60
0100
0010
0100
0001
0010
0000
0100
0000
,  // measure 61
1000
0001
0100
0010
,  // measure 62
0220
0000
0000
0000
,  // measure 63
0330
0000
0000
0000
;

//---------------dance-single - Chewi----------------
#NOTES:
     dance-single:
     Chewi:
     Hard:
     12:
     0.521,0.478,0.187,0.032,0.179: // measure 1
0000
0000
0000
0000
,  // measure 2
0000
0000
0000
0000
,  // measure 3
0000
0000
0000
0000
,  // measure 4
0000
0000
0000
0000
,  // measure 5
1000
0000
1100
0000
0001
0010
0100
0000
,  // measure 6
1000
0000
1010
0000
1000
0010
0100
0000
,  // measure 7
0001
0000
1001
0000
1000
0001
1000
0000
,  // measure 8
0001
0000
1001
0000
1000
0001
1000
0000
,  // measure 9
0001
0010
0100
1000
0100
0100
0100
0000
,  // measure 10
1000
0100
0010
0001
0010
0010
0010
0000
,  // measure 11
2002
0000
0000
3003
,  // measure 12
1010
0011
0101
1100
,  // measure 13
1000
0001
1000
0001
1000
0001
1000
0001
1000
0000
0001
0000
0001
0000
0000
0000
,  // measure 14
0001
0000
0100
0000
0010
0000
1000
0000
0001
0000
0000
0001
0000
0000
0001
0000
,  // measure 15
0001
0000
0010
0000
0100
0000
1000
0000
0100
0000
0000
0100
0000
0000
0100
0000
,  // measure 16
1000
0000
0001
0000
0100
0000
0010
0000
0100
0000
0000
0100
0000
0000
0100
0000
,  // measure 17
0010
0000
1000
0000
0001
0000
0010
0000
0010
0000
0000
0010
0000
0000
0010
0000
,  // measure 18
0001
0010
0100
1000
0100
0010
0001
0000
,  // measure 19
1000
0100
0010
0001
0010
0100
1000
0000
,  // measure 20
0001
1000
0010
0100
0001
0100
0010
0000
,  // measure 21
1000
0010
0001
0100
1000
0100
0001
0010
,  // measure 22
0100
0000
0010
0000
0001
0000
0100
0000
0010
0000
0000
0010
0000
0000
0010
0000
,  // measure 23
0100
0000
0001
0000
0010
0000
0100
0000
1000
0000
0000
1000
0000
0000
1000
0000
,  // measure 24
0100
0000
0010
0000
0001
0000
0100
0000
0010
0000
0000
0010
0000
0000
0010
0000
,  // measure 25
0010
0000
0100
0000
0001
0000
1000
0000
0100
0000
0000
0100
0000
0000
0100
0000
,  // measure 26
0010
0100
1001
0000
1000
0100
0010
0001
,  // measure 27
0100
0010
1001
0000
0001
0100
0010
1000
,  // measure 28
0010
1000
1100
0000
1000
0100
0010
0001
,  // measure 29
0100
0001
0011
0000
0100
1000
1010
0000
,  // measure 30
0001
0100
0001
0000
1000
0000
0100
0000
0010
0000
1000
0000
0001
0000
0010
0000
,  // measure 31
0100
1000
0001
0100
0010
0000
1100
0000
,  // measure 32
0010
1000
0010
0000
0001
0000
1000
0000
0100
0000
0010
0000
0001
0000
0010
0000
,  // measure 33
0100
1000
0001
1000
0010
0000
0101
0000
,  // measure 34
1000
0100
0001
0000
0100
0000
1000
0000
0010
0000
0100
0000
0001
0000
0000
0000
,  // measure 35
0100
0010
1000
0001
0010
0000
0110
0000
,  // measure 36
0010
0001
1000
0000
0010
0000
0100
0000
0001
0000
0100
0000
0010
0000
0000
0000
,  // measure 37
1000
0100
0010
0001
1000
0100
0011
0000
,  // measure 38
0001
0000
0010
0000
0001
0000
0010
0000
0001
0010
0001
0010
0001
0000
0000
0000
,  // measure 39
1000
0000
0100
0000
1000
0000
0100
0000
1000
0100
0010
0100
1000
0000
0000
0000
,  // measure 40
0001
0000
0100
0000
0010
0000
0100
0000
0001
0100
0001
0100
0001
0000
0000
0000
,  // measure 41
0001
0000
0100
0000
0010
0000
1000
0000
0001
1000
0001
1000
0001
0000
0000
0000
,  // measure 42
0100
0000
1000
0000
0100
0000
1000
0000
0100
1000
0100
1000
0100
0000
0000
0000
,  // measure 43
1000
0000
0100
0000
0010
0000
0001
0000
0001
1000
0010
0100
0001
0000
0000
0000
,  // measure 44
0100
0000
0010
0000
1000
0000
0001
0000
0010
0001
0010
0001
0010
0000
0000
0000
,  // measure 45
0001
0000
0010
0000
0100
0000
1000
0000
0010
1000
0100
0010
0001
0000
0000
0000
,  // measure 46
0100
0000
0010
0000
1000
0000
0001
0000
0010
0000
0000
0010
0000
0000
0010
0000
,  // measure 47
0001
0000
0010
0000
0100
0000
1000
0000
0100
0000
0000
0100
0000
0000
0100
0000
,  // measure 48
1000
0000
0001
0000
0100
0000
1000
0000
0001
0000
0000
0001
0000
0000
0001
0000
,  // measure 49
0001
0000
0100
0000
0010
0000
1000
0000
1000
0000
0000
1000
0000
0000
1000
0000
,  // measure 50
1000
0001
0010
0100
1000
0001
1000
0000
,  // measure 51
1000
0100
0010
0001
1000
0010
0100
0000
,  // measure 52
0001
0100
0010
1000
0001
0010
0100
1000
,  // measure 53
0001
1000
0001
1000
0010
0010
0010
0010
,  // measure 54
0100
0000
0001
0100
0001
0000
0100
0000
0010
0000
1000
0000
1001
0000
0000
0000
,  // measure 55
1000
0000
0100
1000
0100
0000
1000
0000
0010
0000
0100
0000
0101
0000
0000
0000
,  // measure 56
0100
0000
0010
0100
0010
0000
1000
0000
0001
0000
0010
0000
0110
0000
0000
0000
,  // measure 57
0010
0000
0001
0010
0100
0000
1000
0000
0100
0000
0010
0000
0001
0000
0100
0000
,  // measure 58
0010
0000
0100
0001
0010
0000
0100
0000
1000
0000
0010
0000
0100
0000
0001
0000
,  // measure 59
0100
0000
0010
1000
0001
0000
0010
0000
0100
0000
0010
0000
0001
0000
1000
0000
,  // measure 60
0010
0000
0100
0001
0100
0000
0010
0000
1000
0000
0100
0000
0010
0000
0100
0000
,  // measure 61
1000
0000
0100
1000
0100
0000
1000
0000
0001
0000
1000
0000
1001
0000
0000
0000
,  // measure 62
1000
0100
2002
0000
0000
0000
0000
0000
,  // measure 63
3003
0000
0000
0000
;
