#TITLE:Digital Abyss (Rave Mix);
#SUBTITLE:;
#ARTIST:Alex Kidd (USA);
#TITLETRANSLIT:;
#SUBTITLETRANSLIT:;
#ARTISTTRANSLIT:;
#GENRE:;
#CREDIT:Chewphoria~;
#MENUCOLOR:;
#METERTYPE:DDR;
#BANNER:Digital Abyss (Rave Mix).png;
#BACKGROUND:Digital Abyss (Rave Mix)-bg.png;
#LYRICSPATH:;
#CDTITLE:;
#MUSIC:Digital Abyss (Rave Mix).mp3;
#OFFSET:-7.489;
#SAMPLESTART:14.995;
#SAMPLELENGTH:15.000;
#SELECTABLE:YES;
#LISTSORT:;
#BPMS:0.000=64.530,7.500=129.070,72.000=64.350,88.000=129.070;
#STOPS:7.500=0.320
;
#BGCHANGES:;
#ATTACKS:;

//---------------dance-single - Chewphoria~----------------
#NOTES:
     dance-single:
     Chewphoria~:
     Hard:
     10:
     0.411,0.421,0.453,0.292,0.118: // measure 1
2002
3003
0220
0330
,  // measure 2
2020
3030
0202
0303
,  // measure 3
0001
0000
1000
0001
0000
0000
0010
0000
0000
0000
0100
0000
1100
0000
0000
0000
,  // measure 4
1000
0000
0000
0100
1000
0000
0001
0000
0000
0000
1000
0000
1001
0000
0000
0000
,  // measure 5
0100
0000
0000
0010
0100
0000
0001
0000
0000
0000
1000
0000
1100
0000
0000
0000
,  // measure 6
1000
0000
0000
0001
0010
0000
0100
0000
0000
0000
1000
0000
1001
0000
0000
0000
,  // measure 7
1000
0000
0000
0010
0100
0000
0001
0000
0000
0000
0001
0000
1100
0000
0000
0000
,  // measure 8
1000
0000
0000
0010
1000
0000
0001
0000
0000
0000
0010
0000
1100
0000
0000
0000
,  // measure 9
1000
0000
0000
0100
0010
0000
0001
0000
0000
0000
0100
0000
0110
0000
0000
0000
,  // measure 10
1000
0000
0000
0010
0100
0000
0001
0000
0000
0000
0010
0000
0100
0000
1000
0000
,  // measure 11
2010
0000
3002
0000
1003
0100
0000
0000
,  // measure 12
0102
0000
2003
0000
3001
0010
0000
0000
,  // measure 13
0012
0000
2003
0000
3001
0100
0000
0000
,  // measure 14
2100
0000
3002
0000
1003
0010
0000
0000
,  // measure 15
0102
0000
2003
0000
3001
0010
0000
0000
,  // measure 16
2010
0000
3002
0000
1003
0100
0000
0000
,  // measure 17
2100
0000
3002
0000
1003
0010
0000
0000
,  // measure 18
0012
0000
2003
0000
3001
0100
0000
0000
,  // measure 19
0020
0000
0000
0000
,  // measure 20
2030
0000
0000
0000
0000
0000
0000
3100
,  // measure 21
0200
0000
0302
0000
,  // measure 22
0023
0000
0000
0000
0000
0000
0000
0000
0000
0000
0000
0000
0000
0000
0000
0000
0031
1000
0001
0000
0100
0010
0100
0000
0010
0100
0010
0000
1000
0001
1000
0000
,  // measure 23
0000
1001
0000
0110
,  // measure 24
0000
0000
1001
0000
0000
0110
1001
0000
,  // measure 25
0000
1100
0000
0101
,  // measure 26
0000
0000
0011
0000
0000
1010
1010
0000
,  // measure 27
0000
1100
0000
1010
,  // measure 28
0000
0011
0000
0101
,  // measure 29
0000
0000
1100
0000
0000
0110
1001
0000
,  // measure 30
1000
0000
0010
0000
0100
0000
0001
0000
1000
0001
1000
0000
0000
0000
0000
0000
,  // measure 31
0001
0000
1000
0001
0000
0000
0010
0000
0000
0000
0100
0000
1100
0000
0000
0000
,  // measure 32
1000
0000
0000
0100
1000
0000
0001
0000
0000
0000
1000
0000
1001
0000
0000
0000
,  // measure 33
0100
0000
0000
0010
0100
0000
0001
0000
0000
0000
1000
0000
1100
0000
0000
0000
,  // measure 34
1000
0000
0000
0001
0010
0000
0100
0000
0000
0000
1000
0000
1001
0000
0000
0000
,  // measure 35
1000
0000
0000
0010
0100
0000
0001
0000
0000
0000
0001
0000
1100
0000
0000
0000
,  // measure 36
1000
0000
0000
0010
1000
0000
0001
0000
0000
0000
0010
0000
1100
0000
0000
0000
,  // measure 37
1000
0000
0000
0100
0010
0000
0001
0000
0000
0000
0100
0000
0110
0000
0000
0000
,  // measure 38
1000
0000
0000
0010
0100
0000
0001
0000
0000
0000
0010
0000
0100
0000
1000
0000
,  // measure 39
0010
0001
0100
0000
0010
1000
0100
0000
,  // measure 40
0010
0001
0100
0000
0010
1000
0100
0000
,  // measure 41
1000
0100
0010
0000
0001
0100
0010
0000
,  // measure 42
1000
0010
0100
0000
0001
0010
0100
0000
,  // measure 43
1000
0001
1000
0000
0001
1000
0001
0000
,  // measure 44
0100
0010
0100
0000
0010
0100
0010
0000
,  // measure 45
1000
0100
1100
0000
0001
0010
0011
0000
,  // measure 46
1000
0001
1001
0000
1000
0100
1100
0001
,  // measure 47
0202
0000
0000
0000
,  // measure 48
0303
0000
0000
0000
;

//---------------dance-single - Chewphoria~----------------
#NOTES:
     dance-single:
     Chewphoria~:
     Beginner:
     2:
     0.124,0.129,0.000,0.113,0.000: // measure 1
1000
0000
1000
0000
,  // measure 2
0001
0000
0001
0000
,  // measure 3
1000
0000
1000
0000
,  // measure 4
0001
0000
0001
0000
,  // measure 5
0010
0000
0010
0000
,  // measure 6
0100
0000
0100
0000
,  // measure 7
1000
0000
1000
0000
,  // measure 8
0100
0000
0100
0000
,  // measure 9
0001
0000
0001
0000
,  // measure 10
0010
0000
0010
0000
,  // measure 11
0020
0000
0000
0030
,  // measure 12
0010
0010
0010
0000
,  // measure 13
0200
0000
0000
0300
,  // measure 14
0100
0100
0100
0000
,  // measure 15
2000
0000
0000
3000
,  // measure 16
1000
1000
1000
0000
,  // measure 17
0002
0000
0000
0003
,  // measure 18
0001
0001
0001
0000
,  // measure 19
0001
0000
0001
0000
,  // measure 20
1000
0000
1000
0000
,  // measure 21
0010
0000
0010
0000
,  // measure 22
0001
0000
0000
0000
,  // measure 23
0000
1000
0000
1000
,  // measure 24
0000
1000
0000
0000
,  // measure 25
0000
0001
0000
0001
,  // measure 26
0000
0001
0000
0000
,  // measure 27
0000
0100
0000
0100
,  // measure 28
0000
0100
0000
0000
,  // measure 29
0000
0010
0000
0010
,  // measure 30
0000
0010
0000
0000
,  // measure 31
1000
0000
1000
0000
,  // measure 32
0001
0000
0001
0000
,  // measure 33
0010
0000
0010
0000
,  // measure 34
0100
0000
0100
0000
,  // measure 35
1000
0000
1000
0000
,  // measure 36
0100
0000
0100
0000
,  // measure 37
0001
0000
0001
0000
,  // measure 38
0010
0000
0010
0000
,  // measure 39
0002
0000
0003
0000
,  // measure 40
2000
0000
3000
0000
,  // measure 41
0200
0000
0300
0000
,  // measure 42
0020
0000
0030
0000
,  // measure 43
0002
0000
0003
0000
,  // measure 44
0020
0000
0030
0000
,  // measure 45
2000
0000
3000
0000
,  // measure 46
0200
0000
0300
0100
;

//---------------dance-single - Chewphoria~----------------
#NOTES:
     dance-single:
     Chewphoria~:
     Medium:
     7:
     0.335,0.345,0.349,0.132,0.000: // measure 1
2000
0000
3002
0000
,  // measure 2
2003
0000
0000
0000
3002
0000
0000
0003
,  // measure 3
0100
0010
0100
0000
0100
0000
0101
0000
,  // measure 4
0100
0001
0100
0000
1000
0000
1001
0000
,  // measure 5
1000
0010
1000
0000
0001
0000
1001
0000
,  // measure 6
1000
0100
1000
0000
0001
0000
0011
0000
,  // measure 7
1002
0000
0103
0000
0100
0010
0100
0000
,  // measure 8
2001
0000
3100
0000
0010
0100
0010
0000
,  // measure 9
2010
0000
3001
0000
0001
1000
0001
0000
,  // measure 10
1200
0000
0301
0000
0100
1000
0100
0000
,  // measure 11
1001
0000
0100
0000
0000
0010
0000
0000
,  // measure 12
1100
0000
0010
0000
0000
0001
0000
0001
,  // measure 13
0100
0000
1010
0000
0100
0001
0000
0000
,  // measure 14
0001
0000
1000
0000
0100
0010
0000
0000
,  // measure 15
0010
0000
0011
0000
0001
0001
0000
0000
,  // measure 16
0101
0000
0100
0000
1000
1000
0000
0000
,  // measure 17
1001
0000
0010
0000
0010
0010
0000
0000
,  // measure 18
0110
0000
0001
0000
1000
0001
1000
0001
,  // measure 19
2000
0000
0000
3200
,  // measure 20
0302
0000
0000
0000
0000
0000
0000
0013
,  // measure 21
0020
0000
2030
0000
,  // measure 22
3002
0000
0000
0000
,  // measure 23
1003
1100
0000
0101
,  // measure 24
0000
0000
1100
0000
0000
1000
0001
0000
,  // measure 25
0000
0011
0000
1010
,  // measure 26
0000
0000
0011
0000
0000
0001
1000
0000
,  // measure 27
0100
0011
0100
1010
,  // measure 28
0001
1001
1000
1001
,  // measure 29
1000
0001
1000
0000
0100
0010
0100
0000
,  // measure 30
0001
0001
0001
0001
0001
0000
0000
0000
,  // measure 31
1000
0100
0000
0010
0000
0001
0010
0000
,  // measure 32
0001
0100
0000
0010
1000
0010
1000
0000
,  // measure 33
1000
0001
0000
1000
0001
1000
0001
0000
,  // measure 34
0100
0010
0000
1000
0100
0010
0001
0000
,  // measure 35
0100
0001
0000
0001
0100
0010
1000
0000
,  // measure 36
0001
1000
0000
1000
0001
1000
0001
0000
,  // measure 37
0100
0010
0000
0010
0100
0010
0100
0000
,  // measure 38
0110
1001
1100
0101
,  // measure 39
0001
0000
0101
0000
1000
1000
1000
0000
,  // measure 40
1000
0000
1100
0000
0001
0001
0001
0000
,  // measure 41
0010
1000
0010
0000
0100
0001
0100
0000
,  // measure 42
0010
1000
0010
0000
0100
0001
0101
0000
,  // measure 43
1000
1100
0001
0101
,  // measure 44
0010
0000
0110
0000
1000
1000
1000
0000
,  // measure 45
1000
1100
0100
0110
,  // measure 46
0010
0000
0010
0000
0000
0010
0001
0000
;

//---------------dance-single - Chewphoria~----------------
#NOTES:
     dance-single:
     Chewphoria~:
     Easy:
     5:
     0.221,0.259,0.132,0.255,0.000: // measure 1
2000
3000
2000
3000
,  // measure 2
0002
0003
0002
0003
,  // measure 3
1000
1000
0100
0000
,  // measure 4
0001
0001
0100
0000
,  // measure 5
1000
1000
0010
0000
,  // measure 6
0001
0001
0010
0000
,  // measure 7
1001
0100
0100
0000
,  // measure 8
1001
0010
0010
0000
,  // measure 9
0110
1000
1000
0000
,  // measure 10
0110
0001
0001
0000
,  // measure 11
2000
0000
0000
3001
,  // measure 12
0002
0000
0000
1003
,  // measure 13
2000
0000
0000
3001
,  // measure 14
0002
0000
0000
0103
,  // measure 15
0200
0000
0000
0310
,  // measure 16
0020
0000
0000
0130
,  // measure 17
0200
0000
0000
0310
,  // measure 18
0020
0000
0000
0000
,  // measure 19
2030
3000
1000
1000
,  // measure 20
2000
3000
0001
0001
,  // measure 21
0002
0003
0200
0300
,  // measure 22
0020
0030
2000
3000
,  // measure 23
0000
0100
0000
1000
,  // measure 24
0000
0010
0000
0001
,  // measure 25
0000
0001
0000
0010
,  // measure 26
0000
1000
0000
0100
,  // measure 27
0000
0100
0000
0001
,  // measure 28
0000
0010
0000
1000
,  // measure 29
0000
1000
0000
0002
,  // measure 30
0000
0000
0000
0003
,  // measure 31
1000
0100
1000
1100
,  // measure 32
0001
0100
0001
0101
,  // measure 33
0010
0100
0010
0110
,  // measure 34
1000
0001
1000
1001
,  // measure 35
2000
0100
0100
3100
,  // measure 36
0002
0100
0100
0103
,  // measure 37
2000
0010
0010
3010
,  // measure 38
0002
0010
0010
0013
,  // measure 39
1100
0000
0100
0100
,  // measure 40
0101
0000
0100
0100
,  // measure 41
1010
0000
0010
0010
,  // measure 42
0011
0000
0010
0010
,  // measure 43
2100
0001
0000
3001
,  // measure 44
0102
1000
0000
1003
,  // measure 45
0020
0100
0000
0130
,  // measure 46
0200
0010
0000
0310
;
