#VERSION:0.82;
#TITLE:Different World;
#SUBTITLE:;
#ARTIST:小自然;
#TITLETRANSLIT:;
#SUBTITLETRANSLIT:;
#ARTISTTRANSLIT:Little Nature;
#GENRE:C-Rock;
#ORIGIN:;
#CREDIT:chewi;
#BANNER:Different World.png;
#BACKGROUND:Different World-bg.png;
#PREVIEWVID:;
#JACKET:Different World-jacket.png;
#CDIMAGE:;
#DISCIMAGE:;
#LYRICSPATH:;
#CDTITLE:cdtitle.png;
#MUSIC:Different World.ogg;
#OFFSET:-0.169000;
#SAMPLESTART:53.577000;
#SAMPLELENGTH:15.000000;
#SELECTABLE:YES;
#BPMS:0.000=175.000;
#STOPS:;
#DELAYS:;
#WARPS:;
#TIMESIGNATURES:0.000=4=4;
#TICKCOUNTS:0.000=4;
#COMBOS:0.000=1;
#SPEEDS:0.000=1.000=0.000=0;
#SCROLLS:0.000=1.000;
#FAKES:;
#LABELS:0.000=Song Start;
#BGCHANGES:;
#KEYSOUNDS:;
#ATTACKS:
;

//---------------dance-single - ----------------
#NOTEDATA:;
#CHARTNAME:;
#STEPSTYPE:dance-single;
#DESCRIPTION:;
#CHARTSTYLE:;
#DIFFICULTY:Beginner;
#METER:3;
#RADARVALUES:0.156680,0.177520,0.000000,0.000000,0.000000,117.000000,0.000000,0.000000,0.000000,0.000000,0.000000,0.000000,0.000000,0.156680,0.177520,0.000000,0.000000,0.000000,117.000000,0.000000,0.000000,0.000000,0.000000,0.000000,0.000000,0.000000;
#CREDIT:;
#NOTES:
0000
0000
0000
0000
,
0000
0000
0000
0000
,
0000
0000
0000
0000
,
0000
0000
0000
0000
,
1000
0000
0000
0000
,
1000
0000
0000
0000
,
0001
0000
0000
0000
,
0001
0000
0000
0000
,
0100
0000
0100
0000
,
0100
0000
0100
0000
,
0010
0000
0010
0000
,
0010
0000
0010
0000
,
1000
0000
1000
0000
,
1000
0000
1000
0000
,
0001
0000
0001
0000
,
0001
0000
0001
0000
,
1000
0000
0000
0000
,
1000
0000
0000
0000
,
0100
0000
0000
0000
,
0100
0000
0000
0000
,
0010
0000
0000
0000
,
0010
0000
0000
0000
,
0001
0000
0000
0000
,
0001
0000
0000
0000
,
0001
0000
0001
0000
,
0001
0000
0001
0000
,
0010
0000
0010
0000
,
0010
0000
0010
0000
,
0100
0000
0100
0000
,
0100
0000
0100
0000
,
1000
0000
1000
0000
,
1000
0000
1000
0000
,
1000
0000
0000
0000
,
0010
0000
0000
0000
,
0100
0000
0000
0000
,
0001
0000
0000
0000
,
1000
0000
0000
0000
,
0100
0000
0000
0000
,
0010
0000
0000
0000
,
0001
0000
0000
0000
,
0001
0000
0001
0000
,
0001
0000
0001
0000
,
1000
0000
1000
0000
,
1000
0000
1000
0000
,
0010
0000
0010
0000
,
0010
0000
0010
0000
,
0100
0000
0100
0000
,
0100
0000
0100
0000
,
0001
0000
0001
0000
,
0001
0000
0001
0000
,
1000
0000
1000
0000
,
1000
0000
1000
0000
,
0010
0000
0010
0000
,
0010
0000
0010
0000
,
0100
0000
0100
0000
,
0100
0000
0100
0000
,
0010
0000
0010
0000
,
0010
0000
0010
0000
,
0001
0000
0001
0000
,
0001
0000
0001
0000
,
1000
0000
1000
0000
,
1000
0000
1000
0000
,
0001
0000
0001
0000
,
0001
0000
0001
0000
,
0100
0000
0100
0000
,
0100
0000
0100
0000
,
0010
0000
0010
0000
,
0010
0000
0010
0000
,
1000
0000
0000
0000
,
1000
0000
0000
0000
,
0001
0000
0000
0000
,
0001
0000
0000
0000
,
1000
0000
0000
0000
,
1000
0000
0000
0000
,
0100
0000
0000
0000
,
0100
0000
0000
0100
;

//---------------dance-single - ----------------
#NOTEDATA:;
#CHARTNAME:;
#STEPSTYPE:dance-single;
#DESCRIPTION:;
#CHARTSTYLE:;
#DIFFICULTY:Easy;
#METER:5;
#RADARVALUES:0.369604,0.426048,0.000000,0.149984,0.000000,260.000000,0.000000,16.000000,0.000000,0.000000,0.000000,0.000000,0.000000,0.369604,0.426048,0.000000,0.149984,0.000000,260.000000,0.000000,16.000000,0.000000,0.000000,0.000000,0.000000,0.000000;
#CREDIT:;
#NOTES:
0000
0000
0000
0000
,
0000
0000
0000
0000
,
0000
0000
0000
0000
,
0000
0000
0000
0000
,
1000
1000
0100
0000
,
0001
0001
0100
0000
,
1000
1000
0010
0000
,
0001
0001
0010
0000
,
0001
0010
0100
1000
,
0001
0010
0100
1000
,
0001
0100
0010
1000
,
0001
0100
0010
1000
,
0001
1000
0100
0010
,
0001
1000
0010
0100
,
0001
0100
0010
1000
,
0001
0100
0010
1000
,
0010
0100
0010
0000
,
0100
0010
0100
0000
,
0001
1000
0001
0000
,
1000
0001
1000
0000
,
0001
0010
0100
0000
,
1000
0100
0010
0000
,
0001
0100
0010
0000
,
1000
0010
0100
0000
,
0001
0100
0010
1000
,
0001
0100
0010
1000
,
0001
0010
0100
1000
,
0001
0010
0100
1000
,
0010
1000
0100
1000
,
0010
1000
0100
1000
,
0010
0100
0001
0010
,
0001
0100
0010
0100
,
0001
0100
0010
0000
,
1000
0100
0010
0000
,
0001
0010
0100
0000
,
1000
0010
0100
0000
,
0001
0100
0010
0000
,
1000
0100
0010
0000
,
0001
0010
0100
1000
,
0001
0001
1000
1000
,
0002
0010
0010
0013
,
0002
0010
0010
0013
,
0002
0100
0100
0103
,
0002
0100
0100
0103
,
2000
0010
0010
3010
,
2000
0010
0010
3010
,
2000
0100
0100
3100
,
2000
0100
0100
3100
,
1000
0100
0010
0000
,
0001
0010
0100
0000
,
1000
0001
0100
0000
,
0001
1000
0010
0000
,
0100
0010
0100
0000
,
0010
0100
0010
0000
,
0100
0010
1000
0001
,
0010
0100
1000
0001
,
2000
0001
0001
3001
,
2000
0001
0001
3001
,
2000
0100
0100
3100
,
2000
0100
0100
3100
,
0002
1000
1000
1003
,
0002
1000
1000
1003
,
0002
0100
0100
0103
,
0002
0100
0100
0103
,
0001
0100
0000
0010
,
1000
0100
0010
0000
,
0001
0010
0100
0000
,
1000
0010
0100
0000
,
0001
0100
0001
0100
,
0001
0001
0100
0100
,
0001
1000
0001
1000
,
0001
0001
1000
1000
,
0100
0010
0100
0010
,
0100
0100
1000
1000
,
1000
0001
1000
0001
,
0100
0100
0010
0010
;

//---------------dance-single - ----------------
#NOTEDATA:;
#CHARTNAME:;
#STEPSTYPE:dance-single;
#DESCRIPTION:;
#CHARTSTYLE:;
#DIFFICULTY:Medium;
#METER:7;
#RADARVALUES:0.405760,0.461553,0.178106,0.000000,0.000000,284.000000,19.000000,0.000000,0.000000,0.000000,0.000000,0.000000,0.000000,0.405760,0.461553,0.178106,0.000000,0.000000,284.000000,19.000000,0.000000,0.000000,0.000000,0.000000,0.000000,0.000000;
#CREDIT:;
#NOTES:
0000
0000
0000
0000
,
0000
0000
0000
0000
,
0000
0000
0000
0000
,
0000
0000
0000
0000
,
1000
0000
0100
0000
0010
0000
0000
0100
,
0000
0010
0000
0000
0001
0000
0001
0000
,
0001
0000
0100
0000
0010
0000
0000
0100
,
0000
0010
0000
0000
1000
0000
1000
0000
,
0001
0100
0010
1000
,
0001
0100
0010
1000
,
0001
0010
0100
1000
,
0001
0010
0100
1000
,
0001
1000
0001
1000
,
0010
0100
0010
0100
,
0001
0100
0001
0100
,
0010
1000
0010
1000
,
0001
0000
1000
0000
0001
1000
0001
0000
,
1000
0000
0001
0000
1000
0001
1000
0000
,
0100
0000
0010
0000
0100
0010
0100
0000
,
0010
0000
0100
0000
0010
0100
0010
0000
,
0100
0000
0010
0000
0001
0010
0001
0000
,
0001
0000
0010
0000
0100
0010
0100
0000
,
0100
1000
0001
0010
,
0100
1001
0010
1001
,
1000
0010
0100
0001
,
1000
0010
0100
0001
,
1000
0100
0010
0001
,
1000
0100
0010
0001
,
0010
0100
0010
0001
,
0010
0100
0010
1000
,
0010
0100
0010
0100
,
1000
0001
1000
0001
,
1000
0000
0010
0000
1000
0010
1000
0000
,
0010
0000
1000
0000
0010
1000
0010
0000
,
0100
0000
0001
0000
0100
0001
0100
0000
,
0001
0000
0100
0000
0001
0100
0001
0000
,
1000
0000
0001
0000
1000
0001
1000
0000
,
0001
0000
1000
0000
0001
1000
0001
0000
,
1000
0100
0010
0001
,
1000
1100
0001
0101
,
0100
0000
0000
0000
,
0010
0000
0000
0000
,
1000
0000
0000
1000
,
1100
0101
1100
0101
,
0100
0000
0000
0000
,
0010
0000
0000
0000
,
1000
0000
0000
0001
,
0011
0101
0011
0101
,
0100
0010
1000
0001
,
1000
1100
0001
0101
,
1000
0010
0100
0001
,
1000
1010
0001
0011
,
0010
0100
1000
0001
,
0010
0100
1000
0001
,
0100
0010
1000
0001
,
0100
0001
0100
0000
0001
0100
0001
0000
,
0100
0010
1000
0001
,
0010
0100
1000
0001
,
1000
0100
0010
0001
,
1000
0100
1000
1001
,
0100
0010
0100
0001
,
0100
0010
0100
0001
,
0100
0010
1000
0100
,
0010
0100
1000
1100
,
1000
0000
0001
0000
0010
0100
1000
0000
,
0001
0000
0100
0000
0010
1000
0001
0000
,
0100
0000
0010
0000
0100
0001
1000
0000
,
0010
0000
0100
0000
0001
1000
0100
0000
,
0010
0000
0010
0000
0100
0000
0000
1000
,
0000
0001
0000
0000
1000
0000
0001
0000
,
0100
0000
0100
0000
0010
0000
0000
0100
,
0000
0010
0000
0000
1000
0000
0001
0000
,
1000
0000
0100
0000
0010
0000
0000
0100
,
0000
1000
0000
0000
0001
0000
0010
0000
,
0100
0000
0010
0000
0001
0000
0000
1000
,
0000
0100
0000
0000
1000
0000
1001
0000
;

//---------------dance-single - ----------------
#NOTEDATA:;
#CHARTNAME:;
#STEPSTYPE:dance-single;
#DESCRIPTION:;
#CHARTSTYLE:;
#DIFFICULTY:Hard;
#METER:11;
#RADARVALUES:0.630737,0.602573,0.674928,0.000000,0.000000,399.000000,72.000000,0.000000,0.000000,0.000000,0.000000,0.000000,0.000000,0.630737,0.602573,0.674928,0.000000,0.000000,399.000000,72.000000,0.000000,0.000000,0.000000,0.000000,0.000000,0.000000;
#CREDIT:;
#NOTES:
// measure 0
0000
0000
0000
0000
,  // measure 1
0000
0000
0000
0000
,  // measure 2
0000
0000
0000
0000
,  // measure 3
0000
0000
0000
0000
,  // measure 4
1000
0010
0100
0000
0001
0100
0010
1000
,  // measure 5
0000
1001
0000
1000
0100
0010
0100
0000
,  // measure 6
1000
0100
0010
0000
0001
0010
0100
1000
,  // measure 7
0000
1001
0000
1000
0010
1000
0010
0000
,  // measure 8
1010
1010
0110
0110
,  // measure 9
0101
0000
0101
0000
0100
0010
0100
0000
,  // measure 10
1010
1010
1001
1001
,  // measure 11
0011
0000
0011
0000
0001
1000
0001
0000
,  // measure 12
1100
1100
0110
0110
,  // measure 13
0011
0000
0011
0000
0010
0100
0010
0000
,  // measure 14
1100
1100
0101
0101
,  // measure 15
0110
0000
0110
0000
1000
0001
1000
0000
,  // measure 16
0010
0010
0100
0000
0100
0100
0010
0000
,  // measure 17
1010
0000
0101
0000
1000
0001
1000
0000
,  // measure 18
1000
1000
0100
0000
0001
0001
0100
0000
,  // measure 19
0010
0010
0100
0000
0100
0000
1001
0000
,  // measure 20
0010
0010
0100
0000
0100
0100
0010
0000
,  // measure 21
0001
0010
0010
0000
1000
0010
0010
0000
,  // measure 22
0100
0000
0101
0000
0001
1000
1000
0000
,  // measure 23
1000
0001
0010
0100
0000
0010
0100
0000
,  // measure 24
1100
1100
1001
1001
,  // measure 25
0011
0000
0011
0000
0001
1000
0001
0000
,  // measure 26
1100
1100
0110
0110
,  // measure 27
0011
0000
0011
0000
0010
0100
0010
0000
,  // measure 28
1100
1100
1001
1001
,  // measure 29
1010
0000
1010
0000
1000
0001
1000
0000
,  // measure 30
0101
0101
0011
0011
,  // measure 31
1001
0000
1001
0000
0100
0010
0100
0000
,  // measure 32
1000
1000
0001
0000
0001
0001
1000
0000
,  // measure 33
1100
0000
0011
0000
0100
0010
0100
0000
,  // measure 34
0100
0100
0001
0000
0010
0010
0001
0000
,  // measure 35
1000
1000
0001
0000
0001
0000
0110
0000
,  // measure 36
1000
1000
0001
0000
0001
0001
1000
0000
,  // measure 37
0010
1000
1000
0000
0100
1000
1000
0000
,  // measure 38
0001
0000
0011
0000
0010
0100
0100
0000
,  // measure 39
0100
0010
0001
1000
0100
0010
0001
0100
,  // measure 40
0001
0100
0001
0000
1000
0100
1000
0000
,  // measure 41
0001
0100
0001
0000
1000
0100
1000
0000
,  // measure 42
1000
0100
0010
0000
0001
0010
0100
0000
,  // measure 43
1000
0010
0100
0000
0001
0100
0010
0000
,  // measure 44
1000
0010
1000
0000
0001
0010
0001
0000
,  // measure 45
1000
0010
1000
0000
0001
0010
0001
0000
,  // measure 46
1000
0010
0100
0000
0010
0100
0001
0000
,  // measure 47
1001
1100
1001
0101
,  // measure 48
0100
0001
0010
0000
0001
0010
0100
0000
,  // measure 49
0100
1000
0010
0000
1000
0010
0100
0000
,  // measure 50
0001
1000
0010
0000
1000
0001
0010
0000
,  // measure 51
0001
1000
0100
0000
1000
0001
0100
0000
,  // measure 52
0010
0100
0001
0000
1000
0000
1001
0000
,  // measure 53
0100
0010
1000
0000
0001
0000
1001
0000
,  // measure 54
1000
0100
1000
0000
0001
0100
0001
0000
,  // measure 55
0100
0010
1000
0001
0100
0010
1000
0001
,  // measure 56
1000
0010
1000
0000
0001
0010
0001
0000
,  // measure 57
1000
0010
1000
0000
0001
0010
0001
0000
,  // measure 58
0001
0010
0100
0000
1000
0100
0010
0000
,  // measure 59
0001
0100
0010
0000
1000
0010
0100
0000
,  // measure 60
0001
0100
0001
0000
1000
0100
1000
0000
,  // measure 61
0001
0100
0001
0000
1000
0100
1000
0000
,  // measure 62
0001
0100
0010
0000
0100
0010
1000
0000
,  // measure 63
1001
0011
1001
1010
,  // measure 64
0010
1000
0100
0000
1000
0100
0010
0000
,  // measure 65
0010
0001
0100
0000
0001
0100
0010
0000
,  // measure 66
1000
0001
0100
0000
0001
1000
0100
0000
,  // measure 67
1000
0001
0010
0000
0001
1000
0010
0000
,  // measure 68
0001
0100
0010
0000
1000
0010
0100
0001
,  // measure 69
0000
1001
0000
0001
0010
0100
0010
0000
,  // measure 70
0001
0010
0100
0000
1000
0100
0010
0001
,  // measure 71
0000
1001
0000
0001
0100
0001
0100
0000
,  // measure 72
0010
1000
0001
0000
0010
0001
1000
0100
,  // measure 73
0000
1100
0000
1000
0001
0100
0010
0000
,  // measure 74
0100
0001
1000
0000
0100
1000
0001
0010
,  // measure 75
0000
0011
0000
0001
1000
0010
0000
0000
;
