#TITLE:Diamonds;
#SUBTITLE:;
#ARTIST:Rihanna;
#TITLETRANSLIT:;
#SUBTITLETRANSLIT:;
#ARTISTTRANSLIT:;
#GENRE:Pop;
#CREDIT:chewi;
#BANNER:Diamonds.png;
#BACKGROUND:Diamonds-bg.png;
#LYRICSPATH:;
#CDTITLE:cdtitle.png;
#MUSIC:Diamonds.ogg;
#OFFSET:-0.208598;
#SAMPLESTART:51.435654;
#SAMPLELENGTH:15.000000;
#SELECTABLE:YES;
#DISPLAYBPM:92.000000;
#BPMS:0.000000=92.000000
;
#STOPS:
;
#BGCHANGES:;
#KEYSOUNDS:;
#ATTACKS:;

//---------------dance-single - ----------------
#NOTES:
     dance-single:
     :
     Beginner:
     1:
     0.047164,0.054024,0.000000,0.040018,0.000000,33.000000,33.000000,0.000000,4.000000,0.000000,0.000000,0.047164,0.054024,0.000000,0.040018,0.000000,33.000000,33.000000,0.000000,4.000000,0.000000,0.000000:
0000
0000
0000
0000
,
0000
0000
0000
0000
,
0000
0000
0000
0000
,
0000
0000
0000
0000
,
1000
0000
0000
0000
,
0001
0000
0000
0000
,
1000
0000
0000
0000
,
0001
0000
0000
0000
,
0100
0000
0000
0000
,
0010
0000
0000
0000
,
0100
0000
0000
0000
,
0010
0000
0000
0000
,
1000
0000
0000
0000
,
0100
0000
0000
0000
,
1000
0000
0000
0000
,
0100
0000
0000
0000
,
0001
0000
0000
0000
,
0100
0000
0000
0000
,
0001
0000
0000
0000
,
0100
0000
0000
0000
,
0200
0000
0000
0300
,
0100
0000
0000
0000
,
0020
0000
0000
0030
,
0010
0000
0000
0000
,
2000
0000
0000
3000
,
1000
0000
0000
0000
,
0002
0000
0000
0003
,
0001
0000
0000
0000
,
0001
0000
0000
0000
,
0010
0000
0000
0000
,
0001
0000
0000
0000
,
0010
0000
0000
0000
,
1000
0000
0000
0000
,
0010
0000
0000
0000
,
1000
0000
0000
0000
,
0010
0000
0000
0000
,
1000
0000
0000
0000
;

//---------------dance-single - ----------------
#NOTES:
     dance-single:
     :
     Easy:
     3:
     0.092899,0.126057,0.000000,0.140063,0.000000,65.000000,65.000000,0.000000,14.000000,0.000000,0.000000,0.092899,0.126057,0.000000,0.140063,0.000000,65.000000,65.000000,0.000000,14.000000,0.000000,0.000000:
// measure 0
0000
0000
0000
0000
,  // measure 1
0000
0000
0000
0000
,  // measure 2
0000
0000
0000
0000
,  // measure 3
0000
0000
0000
0000
,  // measure 4
1000
0000
1000
0000
,  // measure 5
0200
0000
0000
0300
,  // measure 6
0001
0000
0001
0000
,  // measure 7
0200
0000
0000
0300
,  // measure 8
1000
0000
1000
0000
,  // measure 9
0020
0000
0000
0030
,  // measure 10
0001
0000
0001
0000
,  // measure 11
0020
0000
0000
0030
,  // measure 12
0010
0000
0010
0000
,  // measure 13
0100
0000
0100
0000
,  // measure 14
0010
0000
0100
0000
,  // measure 15
0010
0000
0100
0000
,  // measure 16
1000
0000
1000
0000
,  // measure 17
0001
0000
0001
0000
,  // measure 18
1000
0000
0001
0000
,  // measure 19
1000
0000
0001
0000
,  // measure 20
2000
0000
0000
3100
,  // measure 21
0200
0000
0000
0310
,  // measure 22
0020
0000
0000
0031
,  // measure 23
0001
0000
1000
0000
,  // measure 24
2000
0000
0000
3010
,  // measure 25
0020
0000
0000
0130
,  // measure 26
0200
0000
0000
0001
,  // measure 27
0301
0000
1000
0000
,  // measure 28
0002
0000
0103
0000
,  // measure 29
2000
0000
3100
0000
,  // measure 30
0001
1000
0001
0000
,  // measure 31
1000
0001
1000
0000
,  // measure 32
2000
0000
3010
0000
,  // measure 33
0002
0000
0013
0000
,  // measure 34
0010
0100
0010
0000
,  // measure 35
0100
0010
0100
0000
,  // measure 36
0010
0000
0000
0000
;

//---------------dance-single - ----------------
#NOTES:
     dance-single:
     :
     Medium:
     6:
     0.182939,0.216097,0.060027,0.220099,0.000000,128.000000,122.000000,6.000000,22.000000,0.000000,0.000000,0.182939,0.216097,0.060027,0.220099,0.000000,128.000000,122.000000,6.000000,22.000000,0.000000,0.000000:
0000
0000
0000
0000
,
0000
0000
0000
0000
,
0000
0000
0000
0000
,
0000
0000
0000
0000
,
0020
0130
0010
0100
,
0002
1003
0001
1000
,
0200
0310
0100
0010
,
0002
0023
0230
2300
,
3002
1003
0001
0100
,
0020
0130
0001
0010
,
0200
1300
0100
0010
,
0002
2003
3020
0230
,
0301
0100
1000
0010
,
0001
0100
1000
0100
,
0001
0000
0001
0000
1000
1000
1000
0000
,
1000
0000
1000
0000
0001
0001
0001
0000
,
1000
0010
0001
0100
,
1000
0010
0001
0100
,
1000
0000
1000
0000
0001
0001
0001
0000
,
0001
0000
0001
0000
1000
1000
1000
0000
,
1002
0100
0100
0103
,
0020
0000
0000
1030
,
0002
0010
1000
0103
,
2000
0100
0001
3010
,
1002
0010
0010
0013
,
0200
0000
0000
1300
,
2000
0100
0001
3010
,
0002
0100
1000
0013
,
1001
0000
0000
0000
1000
0000
1000
1000
,
0000
0000
0000
0000
0001
0000
0001
0001
,
0000
0000
0000
0000
1000
0000
0001
1000
,
0000
0000
0001
1000
,
1001
0000
0000
0000
0100
0000
0100
0100
,
0000
0000
0000
0000
0010
0000
0010
0010
,
0000
0000
0000
0000
0100
0000
0010
0100
,
0000
0100
0010
0110
,
0110
0000
0000
0000
;

//---------------dance-single - ----------------
#NOTES:
     dance-single:
     :
     Hard:
     8:
     0.238679,0.234105,0.010005,0.220099,0.040018,167.000000,166.000000,1.000000,22.000000,0.000000,0.000000,0.238679,0.234105,0.010005,0.220099,0.040018,167.000000,166.000000,1.000000,22.000000,0.000000,0.000000:
0000
0000
0000
0000
,
0000
0000
0000
0000
,
0000
0000
0000
0000
,
0000
0000
0000
0000
,
2000
0000
3100
0000
0010
0001
0100
0000
,
0002
0100
1000
0013
,
0002
0000
0013
0000
0100
1000
0010
0000
,
2000
0100
0001
3010
,
0020
0000
0130
0000
0001
1000
0100
0000
,
0020
0100
0001
0130
,
0020
0000
0031
0000
1000
0100
0001
0000
,
0200
0001
1000
0310
,
1000
0000
0000
0001
1000
0000
0000
0000
0100
0000
0010
0000
0001
0000
0000
0000
,
0100
0000
0000
0100
0010
0000
0000
0000
1000
0000
0010
0000
1000
0000
0000
0000
,
0010
0000
0000
1000
0001
0000
0000
0000
0010
0000
0100
0000
1000
0000
0000
0000
,
0100
0000
0000
0100
0010
0000
0000
0000
0100
0000
0010
0000
0100
0000
0000
0000
,
1000
0000
0000
0001
1000
0000
0000
0000
0010
0000
0100
0000
1000
0000
0000
0000
,
0010
0000
0000
0010
0100
0000
0000
0000
0001
0000
0100
0000
0001
0000
0000
0000
,
0100
0000
0000
0001
1000
0000
0000
0000
0100
0000
0010
0000
0001
0000
0000
0000
,
0010
0000
0000
0010
0100
0000
0000
0000
0010
0000
0100
0000
0010
0000
0000
0000
,
0200
0000
1000
0000
0010
0000
1300
0100
,
0020
0000
0001
0000
0100
0000
0031
0100
,
0020
0001
0100
0031
,
0100
0000
0100
0000
1000
1000
0001
0001
,
0020
0000
0001
0000
0100
0000
0031
0010
,
0200
0000
1000
0000
0010
0000
1300
0010
,
0200
1000
0010
1300
,
0010
0000
0010
0000
1000
1000
0001
0001
,
0010
0000
0000
0001
0010
0100
1000
0100
,
0100
0000
0000
1000
0100
0010
0001
0010
,
0020
0032
2003
3020
,
0130
0000
0100
0000
0010
0010
0010
0000
,
0000
0000
0000
1000
0100
0010
0001
0010
,
0010
0000
0000
0001
0010
0100
1000
0100
,
0200
2300
3002
0203
,
0310
0000
0010
0000
0100
0100
0100
0000
,
0110
0000
0000
0000
;
