#VERSION:0.81;
#TITLE:Diamond Dust -Twinkle-Trance Ver.-;
#SUBTITLE:;
#ARTIST:TAG remixed by DJ DREAM;
#TITLETRANSLIT:;
#SUBTITLETRANSLIT:;
#ARTISTTRANSLIT:;
#GENRE:;
#ORIGIN:;
#CREDIT:Chewi☆;
#BANNER:Diamond Dust -Twinkle-Trance Ver.-.png;
#BACKGROUND:Diamond Dust -Twinkle-Trance Ver.--bg.png;
#PREVIEWVID:;
#JACKET:Diamond Dust -Twinkle-Trance Ver.--jacket.png;
#CDIMAGE:;
#DISCIMAGE:;
#LYRICSPATH:;
#CDTITLE:;
#MUSIC:Diamond Dust -Twinkle-Trance Ver.-.mp3;
#OFFSET:-0.031;
#SAMPLESTART:52.996;
#SAMPLELENGTH:15.000;
#SELECTABLE:YES;
#BPMS:0.000=145.000;
#STOPS:;
#DELAYS:;
#WARPS:;
#TIMESIGNATURES:0.000=4=4;
#TICKCOUNTS:0.000=4;
#COMBOS:0.000=1;
#SPEEDS:0.000=1.000=0.000=0;
#SCROLLS:0.000=1.000;
#FAKES:;
#LABELS:0.000=Song Start;
#BGCHANGES:;
#KEYSOUNDS:;
#ATTACKS:
;

//---------------dance-single - Chewi----------------
#NOTEDATA:;
#CHARTNAME:Chewi;
#STEPSTYPE:dance-single;
#DESCRIPTION:Chewi;
#CHARTSTYLE:Pad;
#DIFFICULTY:Beginner;
#METER:1;
#RADARVALUES:0.112,0.115,0.012,0.000,0.000,66.000,1.000,0.000,0.000,0.000,0.000,0.000,0.000,0.112,0.115,0.012,0.000,0.000,66.000,1.000,0.000,0.000,0.000,0.000,0.000,0.000;
#CREDIT:Chewi;
#NOTES:
// measure 0
0000
0000
0000
0000
,  // measure 1
0000
0000
0000
0000
,  // measure 2
0000
0000
0000
0000
,  // measure 3
0000
0000
0000
0000
,  // measure 4
0100
0000
0000
0000
,  // measure 5
0010
0000
0000
0000
,  // measure 6
0100
0000
0100
0000
,  // measure 7
0100
0000
0000
0000
,  // measure 8
0010
0000
0000
0000
,  // measure 9
0110
0000
0000
0000
,  // measure 10
0010
0000
0010
0000
,  // measure 11
0010
0000
0000
0000
,  // measure 12
0100
0000
0100
0000
,  // measure 13
0100
0000
0000
0000
,  // measure 14
1000
0000
1000
0000
,  // measure 15
1000
0000
0000
0000
,  // measure 16
0010
0000
0010
0000
,  // measure 17
0100
0000
0100
0000
,  // measure 18
0010
0000
0010
0000
,  // measure 19
0010
0000
0000
0000
,  // measure 20
0100
0000
0100
0000
,  // measure 21
0100
0000
0000
0000
,  // measure 22
1000
0000
1000
0000
,  // measure 23
1000
0000
0000
0000
,  // measure 24
0001
0000
0001
0000
,  // measure 25
0001
0000
0000
0000
,  // measure 26
0010
0000
0000
0000
,  // measure 27
1000
0000
0000
0000
,  // measure 28
0100
0000
0000
0000
,  // measure 29
1000
0000
0000
0000
,  // measure 30
0010
0000
0010
0000
,  // measure 31
0010
0000
0000
0000
,  // measure 32
0100
0000
0100
0000
,  // measure 33
0100
0000
0000
0000
,  // measure 34
0010
0000
0010
0000
,  // measure 35
0010
0000
0000
0000
,  // measure 36
0001
0000
0001
0000
,  // measure 37
0001
0000
0000
0000
,  // measure 38
0100
0000
0100
0000
,  // measure 39
0010
0000
0010
0000
,  // measure 40
0100
0000
0100
0000
,  // measure 41
0100
0000
0000
0000
,  // measure 42
0010
0000
0010
0000
,  // measure 43
0010
0000
0000
0000
,  // measure 44
0001
0000
0001
0000
,  // measure 45
0001
0000
0000
0000
,  // measure 46
1000
0000
1000
0000
,  // measure 47
1000
0000
0000
0000
,  // measure 48
0100
0000
0000
0000
,  // measure 49
0010
0000
0000
0000
;

//---------------dance-single - Chewi----------------
#NOTEDATA:;
#CHARTNAME:Chewi;
#STEPSTYPE:dance-single;
#DESCRIPTION:Chewi;
#CHARTSTYLE:Pad;
#DIFFICULTY:Easy;
#METER:5;
#RADARVALUES:0.270,0.230,0.023,0.023,0.000,157.000,2.000,2.000,0.000,0.000,0.000,0.000,0.000,0.270,0.230,0.023,0.023,0.000,157.000,2.000,2.000,0.000,0.000,0.000,0.000,0.000;
#CREDIT:Chewi;
#NOTES:
// measure 0
0000
0000
0000
0000
,  // measure 1
0000
0000
0000
0000
,  // measure 2
0000
0000
0000
0000
,  // measure 3
0000
0000
0000
0000
,  // measure 4
1000
0000
1000
0000
,  // measure 5
0001
0000
0001
0000
,  // measure 6
0010
0000
0010
0000
,  // measure 7
0100
0000
0100
0000
,  // measure 8
0010
0100
0010
0100
,  // measure 9
0010
0100
0010
0100
,  // measure 10
1000
0001
1000
0001
,  // measure 11
1000
0001
1000
0001
,  // measure 12
0010
0001
0010
0001
,  // measure 13
0010
0001
0010
0001
,  // measure 14
1000
0100
1000
0100
,  // measure 15
1000
0100
1000
0100
,  // measure 16
0100
0100
0001
0000
,  // measure 17
0100
0001
0100
0100
,  // measure 18
0010
0010
0001
0010
,  // measure 19
1000
0001
0010
0000
,  // measure 20
0100
0100
0001
1000
,  // measure 21
0010
0010
0010
0000
,  // measure 22
0100
0100
0001
1000
,  // measure 23
0010
1000
0001
0000
,  // measure 24
0010
0010
0001
0000
,  // measure 25
0010
0001
0010
0010
,  // measure 26
0100
0100
0001
0100
,  // measure 27
1000
0001
0100
0000
,  // measure 28
0010
1000
0001
0100
,  // measure 29
0010
0010
0010
0000
,  // measure 30
0010
1000
0001
0100
,  // measure 31
0220
0000
0000
0330
,  // measure 32
0100
0100
0001
0000
,  // measure 33
0100
0001
0100
0100
,  // measure 34
0010
0010
0001
0010
,  // measure 35
1000
0001
0010
0000
,  // measure 36
1000
1000
0001
0010
,  // measure 37
1000
1000
0001
0000
,  // measure 38
0010
0001
0010
0010
,  // measure 39
0001
1000
0001
1000
,  // measure 40
0010
0010
1000
0000
,  // measure 41
0010
1000
0010
0010
,  // measure 42
0100
0100
1000
0100
,  // measure 43
0001
1000
0100
0000
,  // measure 44
0001
0001
1000
0100
,  // measure 45
0001
0001
1000
0000
,  // measure 46
0100
1000
0100
0100
,  // measure 47
1000
0001
1000
0001
,  // measure 48
0000
0001
0000
0001
0000
0001
1000
0000
,  // measure 49
1001
0000
0000
0000
;

//---------------dance-single - Chewi----------------
#NOTEDATA:;
#CHARTNAME:Chewi;
#STEPSTYPE:dance-single;
#DESCRIPTION:Chewi;
#CHARTSTYLE:Pad;
#DIFFICULTY:Medium;
#METER:7;
#RADARVALUES:0.364,0.316,0.399,0.106,0.035,174.000,34.000,9.000,0.000,0.000,0.000,0.000,0.000,0.364,0.316,0.399,0.106,0.035,174.000,34.000,9.000,0.000,0.000,0.000,0.000,0.000;
#CREDIT:Chewi;
#NOTES:
// measure 0
0000
0000
0000
0000
,  // measure 1
0000
0000
0000
0000
,  // measure 2
0000
0000
0000
0000
,  // measure 3
0000
0000
0000
0000
,  // measure 4
1000
0000
1100
0000
,  // measure 5
0002
0023
0230
2300
,  // measure 6
3001
0000
0101
0000
,  // measure 7
2000
3020
0230
0302
,  // measure 8
1003
0000
0000
1000
0000
0000
1000
0000
0001
0000
0000
0000
0000
0000
0000
0000
,  // measure 9
0001
0000
0000
0001
0000
0000
0001
0000
1000
0000
0000
0000
0000
0000
0000
0000
,  // measure 10
0010
0000
0000
0010
0000
0000
0010
0000
0100
0000
0000
0000
0000
0000
0000
0000
,  // measure 11
0010
0100
0010
0100
0000
0100
0010
0000
,  // measure 12
1000
0000
0000
1000
0000
0000
1000
0000
0001
0000
0000
0000
0000
0000
0000
0000
,  // measure 13
0001
0000
0000
0001
0000
0000
0001
0000
1000
0000
0000
0000
0000
0000
0000
0000
,  // measure 14
0100
0000
0000
0100
0000
0000
0100
0000
0010
0000
0000
0000
0000
0000
0000
0000
,  // measure 15
0200
0010
0010
0310
,  // measure 16
0010
0000
0001
0000
0010
0001
0000
0000
,  // measure 17
0001
0000
0010
0001
0000
0000
1001
0000
,  // measure 18
0100
0010
1000
0100
,  // measure 19
1000
0001
1001
0000
,  // measure 20
0100
0001
1000
0001
,  // measure 21
1001
1100
1100
0000
,  // measure 22
0010
0001
1000
0001
,  // measure 23
1001
0101
0011
0000
,  // measure 24
0100
0000
1000
0000
0100
1000
0000
0000
,  // measure 25
1000
0000
0100
1000
0000
0000
1001
0000
,  // measure 26
0010
0100
0001
0010
,  // measure 27
0001
1000
1001
0000
,  // measure 28
0010
1000
0001
1000
,  // measure 29
1001
0011
0011
0000
,  // measure 30
0100
1000
0001
1000
,  // measure 31
1001
1010
1100
0000
,  // measure 32
0101
0010
1000
0001
,  // measure 33
0011
1000
0001
0110
,  // measure 34
0101
1000
0010
0100
,  // measure 35
1010
0010
0100
0100
,  // measure 36
1100
0001
0100
0010
,  // measure 37
0110
0100
0010
0010
,  // measure 38
1001
1000
0001
0010
,  // measure 39
0100
1000
0001
0010
,  // measure 40
1010
0100
0001
1000
,  // measure 41
1100
0001
1000
0110
,  // measure 42
1010
0001
0100
0010
,  // measure 43
0101
0100
0010
0010
,  // measure 44
0011
1000
0010
0100
,  // measure 45
0110
0010
0100
0100
,  // measure 46
1001
0001
1000
0100
,  // measure 47
0010
0001
1000
0100
,  // measure 48
0000
0010
0000
0010
0000
0010
0001
0010
,  // measure 49
0001
0000
0000
0000
;

//---------------dance-single - Chewi----------------
#NOTEDATA:;
#CHARTNAME:Chewi;
#STEPSTYPE:dance-single;
#DESCRIPTION:Chewi;
#CHARTSTYLE:Pad;
#DIFFICULTY:Hard;
#METER:11;
#RADARVALUES:0.485,0.460,0.305,0.282,0.106,239.000,26.000,24.000,0.000,0.000,0.000,0.000,0.000,0.485,0.460,0.305,0.282,0.106,239.000,26.000,24.000,0.000,0.000,0.000,0.000,0.000;
#CREDIT:Chewi;
#NOTES:
// measure 0
0000
0000
0000
0000
,  // measure 1
0000
0000
0000
0000
,  // measure 2
0000
0000
0000
0000
,  // measure 3
0000
0000
0000
0000
,  // measure 4
0000
0010
0000
1100
0000
0001
0000
0100
,  // measure 5
0000
1000
0000
0001
0000
0010
1000
0001
,  // measure 6
0000
1000
0000
0101
0000
0001
0000
0100
,  // measure 7
0000
1000
0000
0001
0000
0100
0001
1000
,  // measure 8
0001
0000
0000
0100
0000
0000
0001
0000
1000
0000
0000
0100
0000
0000
1000
0000
,  // measure 9
0010
0000
0000
0100
0000
0000
0001
0000
0010
0000
0000
0100
0000
0000
1000
0000
,  // measure 10
0001
0000
0000
0100
0000
0000
0010
0000
1000
0000
0000
0001
0000
0000
0010
0000
,  // measure 11
0001
0010
0100
1000
0000
0010
1000
0001
,  // measure 12
1000
0000
0000
0010
0000
0000
1000
0000
0001
0000
0000
0010
0000
0000
0001
0000
,  // measure 13
0100
0000
0000
0010
0000
0000
1000
0000
0100
0000
0000
0010
0000
0000
0001
0000
,  // measure 14
1000
0000
0000
0010
0000
0000
0100
0000
0001
0000
0000
1000
0000
0000
0001
0000
,  // measure 15
0002
1000
1000
1003
,  // measure 16
0000
1000
0100
0010
0100
1000
0000
1000
,  // measure 17
0100
0010
0100
1000
0000
0010
0010
0100
,  // measure 18
0000
0010
0100
0001
0010
0100
1000
0002
,  // measure 19
0000
0023
0000
0032
0000
0003
0010
0100
,  // measure 20
1000
0000
0100
1000
0000
1100
0000
0101
,  // measure 21
0000
0011
0000
2020
0000
0000
3030
0000
,  // measure 22
1000
0000
0001
1000
0000
0100
0010
0001
,  // measure 23
0000
1000
1000
0100
0000
1100
0000
0011
,  // measure 24
0000
0001
0010
0100
0010
0001
0000
0001
,  // measure 25
0010
0100
0010
0001
0000
0100
0100
0010
,  // measure 26
0000
0100
0010
1000
0100
0010
0001
2000
,  // measure 27
0000
3200
0000
2300
0000
3000
0100
0010
,  // measure 28
0001
0000
0010
0001
0000
0011
0000
1010
,  // measure 29
0000
1100
0000
0202
0000
0000
0303
0000
,  // measure 30
0010
0000
0100
0010
0000
0002
0000
2000
,  // measure 31
0000
0000
0000
3003
,  // measure 32
0000
0000
0010
0000
0001
0000
1000
0100
1000
0000
0010
0000
0000
0000
0010
0000
,  // measure 33
1000
0000
0001
0100
0001
0000
0010
0000
0000
0000
0100
0000
1000
0000
0010
0000
,  // measure 34
0000
0000
0010
0000
1000
0000
0001
1000
0001
0000
0010
0000
0100
0000
2000
0000
,  // measure 35
0000
3002
0000
0203
0000
0310
0010
1000
,  // measure 36
0010
0000
1000
0001
0000
0011
0000
1001
,  // measure 37
0000
1010
0000
0220
0000
0000
0330
0000
,  // measure 38
1000
0000
0010
0100
0000
0010
1000
0100
,  // measure 39
0000
1000
0100
0010
0000
0101
0000
1010
,  // measure 40
0000
0000
0001
0000
0010
0000
0100
1000
0100
0000
1000
0000
0000
0000
1000
0000
,  // measure 41
0010
0000
0100
0001
0100
0000
0001
0000
0000
0000
0010
0000
0001
0000
0100
0000
,  // measure 42
0000
0000
0001
0000
1000
0000
0010
0100
0010
0000
1000
0000
0100
0000
0020
0000
,  // measure 43
0000
0032
0000
2003
0000
3001
0001
1000
,  // measure 44
0001
0000
0001
1000
0000
1010
0000
0101
,  // measure 45
0000
1001
0000
2200
0000
0000
3300
0000
,  // measure 46
1000
0000
0001
0101
0000
1010
0000
0101
,  // measure 47
0002
1000
1000
1003
,  // measure 48
0000
1000
0000
1001
0000
0001
0100
1000
,  // measure 49
0010
0000
0000
0000
;
