#TITLE:Deck The Hallcore;
#SUBTITLE:;
#ARTIST:xRGTMx;
#TITLETRANSLIT:;
#SUBTITLETRANSLIT:;
#ARTISTTRANSLIT:;
#CREDIT:xRGTMx;
#BANNER:Deck-The-Hallcore.png;
#BACKGROUND:Deck-The-Hallcore-bg.png;
#LYRICSPATH:;
#CDTITLE:;
#MUSIC:Deck The Hallcore.mp3;
#OFFSET:-0.020;
#SAMPLESTART:8.240;
#SAMPLELENGTH:12.000;
#SELECTABLE:YES;
#BPMS:0.000=175.000,152.000=87.500,184.000=175.000;
#STOPS:;
#BGCHANGES:;

//---------------dance-single - xRGTMx----------------
#NOTES:
     dance-single:
     xRGTMx:
     Hard:
     7:
     0.423,0.435,0.340,0.146,0.063:
0000
0000
0000
0000
,
0000
0000
0000
0000
,
0000
0000
0000
0000
,
0000
0000
0000
0000
,
2000
0000
0000
0000
,
3001
1000
0001
1000
0001
0000
1001
0000
,
1000
0000
0000
0100
0010
0000
0001
0000
,
1000
0001
0100
0110
,
0010
1000
0001
0010
0200
0000
0000
1300
,
0100
0010
1001
0000
,
0001
0000
0000
0100
0010
0000
1000
0000
,
0001
1000
0100
0110
,
0010
0001
1000
0010
0200
0000
0000
0301
,
0100
0010
1001
0000
,
1000
0000
0000
0001
0100
0000
0110
0000
,
0010
0000
0000
1000
0100
0000
0110
0000
,
0010
0001
0100
0000
0010
1000
0100
0000
,
0110
1100
0101
0000
,
1000
0000
0000
0001
1000
0000
0010
0000
,
0100
0001
0010
0100
,
0010
0001
1000
0100
0020
0000
0000
0031
,
0010
0110
1001
0000
,
1000
0000
0000
0010
0100
0000
0001
0000
,
1000
0001
0010
0110
,
0100
1000
0001
0100
0020
0000
0000
1030
,
0010
0100
1001
0000
,
0001
0000
0000
0010
0100
0000
1000
0000
,
0001
1000
0010
0110
,
0100
0001
1000
0100
0020
0000
0000
0031
,
0010
0100
1001
0000
,
1000
0000
0000
0001
0010
0000
0110
0000
,
0100
0000
0000
1000
0010
0000
0110
0000
,
0100
0001
0010
0000
0100
1000
0010
0000
,
0110
1010
0011
0000
,
1000
0000
0000
0001
1000
0000
0100
0000
,
0010
0001
0100
0010
,
0100
0001
1000
0010
0200
0000
0000
0301
,
0100
0110
1001
0000
,
2000
0000
0000
3010
0000
0000
0000
0000
1000
0000
0000
0001
0000
0000
0100
0000
,
0002
0000
0000
1003
0000
0000
0000
0000
0001
0000
0000
0010
0000
0000
0100
0000
,
2000
0000
0000
3100
0000
0000
0000
0000
1000
0000
0000
0010
0000
0000
1000
0000
,
0002
0000
0000
1003
0000
0000
0000
0000
0001
0000
0100
0000
0010
0000
0000
0000
,
1000
0000
0000
0100
0000
0000
0100
0000
0010
0000
0000
0000
0011
0000
0000
0000
,
0001
0000
0000
0100
0000
0000
0100
0000
0010
0000
0000
0000
1010
0000
0000
0000
,
1000
0000
0000
1000
0000
0000
0010
0000
0100
0000
0000
0100
0000
0000
0001
0000
,
1000
0000
0000
1000
0000
0000
0001
0000
0100
0000
0010
0000
1001
0000
0000
0000
,
1000
0000
0000
1100
0000
0000
0100
0000
,
0010
0000
0001
0010
0000
0100
1000
0000
,
0001
0000
0000
0100
0000
0000
0110
0000
,
0010
0000
1000
0010
0000
0100
0001
0000
,
1000
0000
0000
0100
0000
0000
0110
0000
,
0100
0000
1000
0010
0000
0100
0001
0000
,
0001
0000
0000
0100
0000
0000
0110
0000
,
0100
0001
0010
0000
0200
0000
0000
0000
,
1300
0000
0000
1010
0000
0000
0010
0000
,
0100
0000
0001
0100
0000
0010
1000
0000
,
0001
0000
0000
0010
0000
0000
0110
0000
,
0100
0000
1000
0100
0000
0010
0001
0000
,
1000
0000
0000
0010
0000
0000
0110
0000
,
0010
0000
1000
0100
0000
0010
0001
0000
,
0001
0000
0000
0010
0000
0000
0110
0000
,
0010
0001
0100
0000
0200
0000
0000
0000
,
0310
0000
0000
0010
0000
0000
1000
0000
,
2002
0000
0000
0000
3000
0000
0000
0000
1003
0000
0000
0100
0000
0000
0010
0000
,
0001
0000
0000
0000
;

//---------------dance-single - xRGTMx----------------
#NOTES:
     dance-single:
     xRGTMx:
     Medium:
     5:
     0.293,0.311,0.194,0.058,0.000:
0000
0000
0000
0000
,
0000
0000
0000
0000
,
0000
0000
0000
0000
,
0000
0000
0000
0000
,
2000
0000
0000
0000
,
3001
0001
1000
1001
,
0001
0000
0100
0010
,
1000
0100
0010
0010
,
0001
1000
1001
0000
,
2000
0000
3001
0000
,
0001
0000
0010
0100
,
1000
0010
0100
0100
,
0001
1000
1001
0000
,
2000
0000
3001
0000
,
1000
0000
0000
0100
0010
0000
0010
0000
,
0001
0000
0000
0100
0010
0000
0010
0000
,
1000
0100
0001
0100
,
1000
0001
1001
0000
,
0100
0000
0010
1000
,
0100
0010
0100
0000
,
1000
1000
1001
0000
,
0001
1000
1001
0000
,
1000
0000
0100
0010
,
0001
0100
0010
0010
,
1000
0001
1001
0000
,
0002
0000
1003
0000
,
1000
0000
0010
0100
,
0001
0010
0100
0100
,
1000
0001
1001
0000
,
0002
0000
1003
0000
,
0001
0000
0000
0100
0010
0000
0010
0000
,
1000
0000
0000
0100
0010
0000
0010
0000
,
0001
0100
1000
0100
,
0001
1000
1001
0000
,
0100
0000
0010
0001
,
0100
0010
0100
0000
,
0001
0001
1001
0000
,
1000
0001
1001
0000
,
1000
0100
0010
0100
,
1000
0010
0100
0010
,
1000
0001
0100
1000
,
0001
0010
1000
0001
,
1000
0000
0000
1000
0100
0000
0000
0100
,
0010
0000
0000
0010
0001
0000
0000
0001
,
0100
0000
0000
0100
0010
0000
0000
0010
,
1000
0000
0000
1000
0001
0000
1001
0000
,
1000
0000
0000
0100
0000
0000
0010
0000
,
0100
0000
0110
0000
,
0100
0000
0000
1000
0000
0000
0010
0000
,
0100
0000
0101
0000
,
0001
0000
0000
1000
0000
0000
0100
0000
,
1000
0000
1001
0000
,
0001
0000
0000
0010
0000
0000
0100
0000
,
1000
0000
1001
0000
,
0001
0000
0000
0100
0000
0000
0010
0000
,
0100
0000
0110
0000
,
0100
0000
0000
0001
0000
0000
0010
0000
,
0100
0000
1100
0000
,
1000
0000
0000
0001
0000
0000
0100
0000
,
0001
0000
1001
0000
,
1000
0000
0000
0010
0000
0000
0100
0000
,
0001
0000
1001
0000
,
1000
0000
0000
1000
0000
0000
0001
0000
,
0200
0000
0010
0000
,
0310
0000
0000
0000
;

//---------------dance-single - xRGTMx----------------
#NOTES:
     dance-single:
     xRGTMx:
     Easy:
     3:
     0.194,0.218,0.068,0.000,0.000:
0000
0000
0000
0000
,
0000
0000
0000
0000
,
0000
0000
0000
0000
,
0000
0000
0000
0000
,
1000
0000
0000
0000
,
0010
0000
1001
0000
,
1000
0000
0001
0000
,
0100
0000
0100
0000
,
0010
0010
0010
0000
,
0100
0000
1001
0000
,
0001
0000
1000
0000
,
0100
0000
0100
0000
,
0010
0010
0010
0000
,
0100
0000
1001
0000
,
1000
0000
1000
0000
,
0100
0000
0100
0000
,
0010
0010
0010
0000
,
0001
0001
0001
0000
,
1000
0000
0001
0000
,
0100
0000
0100
0000
,
0001
0000
0001
0000
,
1000
0001
1000
0000
,
1000
0000
0001
0000
,
0010
0000
0010
0000
,
0100
0100
0100
0000
,
0010
0000
1001
0000
,
0001
0000
1000
0000
,
0010
0000
0010
0000
,
0100
0100
0100
0000
,
0010
0000
1001
0000
,
1000
0000
1000
0000
,
0010
0000
0010
0000
,
0100
0100
0100
0000
,
0001
0001
0001
0000
,
1000
0000
0001
0000
,
0010
0000
0010
0000
,
0001
0000
0001
0000
,
1000
0001
1000
0000
,
1000
0000
0010
0000
,
0100
0000
0001
0000
,
1000
0000
0100
0000
,
0010
0000
0001
0000
,
1000
1000
0000
0000
,
0010
0010
0000
0000
,
0100
0100
0000
0000
,
0001
0001
1001
0000
,
1000
0000
1000
0000
,
0100
0000
0100
0000
,
0001
0000
0001
0000
,
0100
0000
0100
0000
,
1000
0000
1000
0000
,
0010
0000
0010
0000
,
0001
0000
0001
0000
,
0010
0000
0010
0000
,
1000
0001
1000
0000
,
0001
0000
0001
0000
,
1000
0001
1000
0000
,
0001
0000
0001
0000
,
0100
0010
0100
0000
,
0010
0000
0010
0000
,
0100
0010
0100
0000
,
0010
0000
0010
0000
,
1001
0000
0000
0000
,
0000
0000
0001
0000
,
0001
0000
0000
0000
;

//---------------dance-single - xRGTMx----------------
#NOTES:
     dance-single:
     xRGTMx:
     Beginner:
     1:
     0.097,0.155,0.010,0.000,0.000:
0000
0000
0000
0000
,
0000
0000
0000
0000
,
0000
0000
0000
0000
,
0000
0000
0000
0000
,
0000
0000
0000
0000
,
0000
0000
0000
0000
,
1000
0000
0000
0000
,
1000
0000
0000
0000
,
0001
0000
0000
0000
,
0100
0000
0100
0000
,
0001
0000
0000
0000
,
0001
0000
0000
0000
,
1000
0000
0000
0000
,
0100
0000
0100
0000
,
1000
0000
0000
0000
,
0100
0000
0000
0000
,
0010
0000
0000
0000
,
0001
0000
0000
0000
,
1000
0000
0000
0000
,
0001
0000
0000
0000
,
0100
0000
0000
0000
,
0010
0000
0010
0000
,
1000
0000
0000
0000
,
1000
0000
0000
0000
,
0001
0000
0000
0000
,
0100
0000
0100
0000
,
0001
0000
0000
0000
,
0001
0000
0000
0000
,
1000
0000
0000
0000
,
0100
0000
0100
0000
,
1000
0000
0000
0000
,
0100
0000
0000
0000
,
0010
0000
0000
0000
,
0001
0000
0000
0000
,
1000
0000
0000
0000
,
0001
0000
0000
0000
,
0100
0000
0000
0000
,
0010
0000
0010
0000
,
1000
0000
0000
0000
,
0001
0000
0000
0000
,
1000
0000
0000
0000
,
0001
0000
0000
0000
,
0100
0000
0000
0000
,
0010
0000
0000
0000
,
0100
0000
0000
0000
,
0010
0000
0000
0000
,
1000
0000
0000
0000
,
1000
0000
0000
0000
,
0100
0000
0100
0000
,
0100
0000
0000
0000
,
0010
0000
0000
0000
,
0010
0000
0000
0000
,
0001
0000
0001
0000
,
0001
0000
0000
0000
,
1000
0000
0000
0000
,
1000
0000
0000
0000
,
0010
0000
0010
0000
,
0010
0000
0000
0000
,
0100
0000
0000
0000
,
0100
0000
0000
0000
,
0001
0000
0001
0000
,
0001
0000
0000
0000
,
1001
0000
0000
0000
,
0000
0000
0001
0000
,
0001
0000
0000
0000
;

//---------------dance-double - xRGTMx----------------
#NOTES:
     dance-double:
     xRGTMx:
     Hard:
     8:
     0.430,0.560,0.262,0.194,0.073:
00000000
00000000
00000000
00000000
,
00000000
00000000
00000000
00000000
,
00000000
00000000
00000000
00000000
,
00000000
00000000
00000000
00000000
,
02000000
00000000
00000000
00000000
,
03100000
00000000
00010000
00100000
01000000
00000000
11000000
00000000
,
10000000
00000000
00000000
00010000
01000000
00000000
00100000
00000000
,
00010000
00001000
00000010
00000001
,
00001000
00000001
00000010
00000100
00002000
00000000
00000000
00000000
,
00003002
00001000
00001003
00000000
,
00000001
00000000
00000000
00001000
00000100
00000000
00000010
00000000
,
00001000
00010000
00100000
10000000
,
00010000
10000000
00100000
01000000
00020000
00000000
00000000
00000000
,
20030000
00010000
30010000
00000000
,
10000000
00000000
00000000
00010000
01000000
00000000
00011000
00000000
,
00010000
00000000
00000000
00000100
00000010
00000000
00000110
00000000
,
00000010
00000001
00001000
00000000
00000100
00010000
00001000
00000000
,
01000000
00100000
10010000
00000000
,
10000000
00000000
00000000
01000000
00010000
00000000
00001000
00000000
,
00000200
00000010
00001000
00000301
,
00000100
00000001
00000010
00000100
00000020
00000000
00000000
00000031
,
00001000
00001100
00011000
00000000
,
10000000
00000000
00000000
00010000
00100000
00000000
01000000
00000000
,
00010000
00001000
00000100
00000001
,
00001000
00000001
00000100
00000010
00002000
00000000
00000000
00000000
,
00003002
00001000
00001003
00000000
,
00000001
00000000
00000000
00001000
00000010
00000000
00000100
00000000
,
00001000
00010000
01000000
10000000
,
00010000
10000000
01000000
00100000
00020000
00000000
00000000
00000000
,
20030000
00010000
30010000
00000000
,
10000000
00000000
00000000
00010000
00100000
00000000
00011000
00000000
,
00010000
00000000
00000000
00000010
00000100
00000000
00000110
00000000
,
00000100
00000001
00001000
00000000
00000010
00010000
00001000
00000000
,
00100000
01000000
10010000
00000000
,
10000000
00000000
00000000
00100000
00010000
00000000
00001000
00000000
,
00000020
00000100
00001000
00000031
,
00000010
00000001
00000100
00000010
00000200
00000000
00000000
00000301
,
00001000
00001010
00011000
00000000
,
00100000
00000000
00000000
01000000
00000000
00000000
00000000
00000000
10000000
00000000
00000000
01000000
00000000
00000000
00100000
00000000
,
00010000
00000000
00000000
01000000
00000000
00000000
00000000
00000000
00001000
00000000
00000000
00010000
00000000
00000000
00100000
00000000
,
01000000
00000000
00000000
00001000
00000000
00000000
00000000
00000000
00100000
00000000
00000000
00010000
00000000
00000000
00000010
00000000
,
00000001
00000000
00000000
00001000
00000000
00000000
00000000
00000000
00000001
00000000
00001000
00000000
00001001
00000000
00000000
00000000
,
00000001
00000000
00000000
00000101
00000000
00000000
00000100
00000000
00000010
00000000
00000000
00001010
00000000
00000000
00001000
00000000
,
00000100
00000000
00000000
00010100
00000000
00000000
00010000
00000000
00001000
00000000
00000000
00101000
00000000
00000000
00100000
00000000
,
00010000
00000000
00000000
01010000
00000000
00000000
01000000
00000000
00100000
00000000
00000000
10100000
00000000
00000000
10000000
00000000
,
00010000
00000000
00000000
10010000
00000000
00000000
10000000
00000000
01000000
00000000
00100000
00000000
00010000
00000000
00110000
00000000
,
00100000
00000000
01000000
10000000
00000000
10000000
00010000
00000000
,
01000000
00010000
00000100
00000001
,
00000010
00000000
00000100
00001000
00000000
00001000
00000001
00000000
,
00000100
00001000
01000000
10000000
,
01000000
00000000
00010000
00100000
00000000
00100000
01000000
00000000
,
10000000
00100000
00001000
00000010
,
00000100
00000000
00000001
00001000
00000000
00001000
00000001
00000000
,
00001100
00011000
01100000
00000000
,
02000000
10000000
00100000
13000000
,
00100000
00000000
00010000
01000000
00001000
00000100
00000010
00000000
,
00000200
00000001
00000010
00000301
,
00000010
00000000
00001000
00000100
00010000
01000000
00100000
00000000
,
00200000
10000000
01000000
10300000
,
01000000
00000000
00010000
00100000
00001000
00000010
00000100
00000000
,
00000020
00000001
00000100
00000031
,
00001100
00011000
01100000
00000000
,
21000000
00000000
00000000
32000000
00000000
00000000
03100000
00000000
,
00020000
00000000
00000000
00000000
00000000
00000000
00000000
00000000
01030000
00000000
00000000
00001000
00000000
00000000
00010000
00000000
,
00001000
00000000
00000000
00000000
;

//---------------dance-double - xRGTMx----------------
#NOTES:
     dance-double:
     xRGTMx:
     Medium:
     5:
     0.280,0.404,0.233,0.117,0.000:
00000000
00000000
00000000
00000000
,
00000000
00000000
00000000
00000000
,
00000000
00000000
00000000
00000000
,
00000000
00000000
00000000
00000000
,
02000000
00000000
00000000
00000000
,
03100000
00000000
00110000
00000000
,
00010000
00000000
00100000
00001000
,
00010000
00010000
00001000
00000000
,
00010000
00000000
00000100
00000000
,
00000110
00000000
00001001
00000000
,
00001000
00000000
00000010
00010000
,
00001000
00001000
00010000
00000000
,
00001000
00000000
01000000
00000000
,
01100000
00000000
10010000
00000000
,
10000000
00000000
10010000
00000000
,
00010000
00000000
01010000
00000000
,
01000000
01000000
00010000
00010000
,
00100000
00001000
00010000
00000000
,
00001000
00000000
00010000
00000100
,
00000010
00000100
00001000
00000000
,
00000001
00000000
00001001
00000000
,
00001000
00000001
00001000
00000000
,
00001000
00000000
00000100
00010000
,
00001000
00001000
00010000
00000000
,
00001000
00000000
00100000
00000000
,
01100000
00000000
10010000
00000000
,
00010000
00000000
01000000
00001000
,
00010000
00010000
00001000
00000000
,
00010000
00000000
00000010
00000000
,
00000110
00000000
00001001
00000000
,
00000001
00000000
00001001
00000000
,
00001000
00000000
00001010
00000000
,
00000010
00000010
00001000
00001000
,
00000100
00010000
00001000
00000000
,
00010000
00000000
00001000
00100000
,
01000000
00100000
00010000
00000000
,
10000000
00000000
10010000
00000000
,
00010000
10000000
00010000
00000000
,
20000000
30010000
00020000
00130000
,
00200000
00301000
00002000
00013000
,
00020000
00030010
00000200
00000301
,
00000020
00000130
00020000
00031000
,
01000000
00000000
00000000
01000000
10000000
00000000
01000000
00000000
,
00010000
00000000
00000000
00010000
00100000
00000000
00001000
00000000
,
00000100
00000000
00000000
00000100
00000010
00000000
00001000
00000000
,
01000000
00100000
00110000
11000000
,
10000000
00000000
00000000
00010000
00000000
00000000
01000000
00000000
,
00100000
00000000
01010000
00000000
,
00100000
00000000
00000000
00001000
00000000
00000000
00010000
00000000
,
00001000
00000000
00010100
00000000
,
00000010
00000000
00000000
00000001
00000000
00000000
00000100
00000000
,
00001000
00000000
01010000
00000000
,
00100000
00000000
00000000
01000000
00000000
00000000
00010000
00000000
,
00200000
01000000
01300000
00000000
,
10000000
00000000
00000000
00010000
00000000
00000000
00100000
00000000
,
01000000
00000000
00110000
00000000
,
01000000
00000000
00000000
00001000
00000000
00000000
00010000
00000000
,
00001000
00000000
00010010
00000000
,
00000100
00000000
00000000
00000001
00000000
00000000
00000010
00000000
,
00001000
00000000
00110000
00000000
,
01000000
00000000
00000000
00100000
00000000
00000000
00010000
00000000
,
02000000
00100000
03100000
00000000
,
20010000
00000000
31000000
00000000
,
00100000
00000000
00100000
00000000
,
00001000
00000000
00000000
00000000
;

//---------------dance-double - xRGTMx----------------
#NOTES:
     dance-double:
     xRGTMx:
     Easy:
     3:
     0.168,0.218,0.214,0.010,0.000:
00000000
00000000
00000000
00000000
,
00000000
00000000
00000000
00000000
,
00000000
00000000
00000000
00000000
,
00000000
00000000
00000000
00000000
,
01000000
00000000
00000000
00000000
,
00100000
00000000
00100000
00000000
,
01000000
00000000
00000000
00000000
,
00010000
00000000
00000000
00000000
,
00100000
00000000
00000000
00000000
,
00001000
00000000
00011000
00000000
,
00010000
00000000
00000000
00000000
,
00000100
00000000
00000000
00000000
,
00000010
00000000
00000000
00000000
,
00000001
00000000
00001001
00000000
,
00001000
00000100
00001000
00000000
,
00000100
00000000
00000110
00000000
,
00000010
00000001
00000010
00000000
,
00000001
00000000
00001001
00000000
,
00001000
00000000
00000000
00000000
,
00000100
00000000
00000000
00000000
,
00010000
00000000
00010000
00000000
,
10010000
00000000
10010000
00000000
,
00100000
00000000
00000000
00000000
,
00010000
00000000
00000000
00000000
,
01000000
00000000
00000000
00000000
,
00001000
00000000
00011000
00000000
,
00010000
00000000
00000000
00000000
,
00000010
00000000
00000000
00000000
,
00000100
00000000
00000000
00000000
,
00000001
00000000
00001001
00000000
,
00001000
00000010
00001000
00000000
,
00000010
00000000
00000110
00000000
,
00000100
00000001
00000100
00000000
,
00000001
00000000
00001001
00000000
,
00001000
00000000
00000000
00000000
,
00000010
00000000
00000000
00000000
,
00010000
00000000
00010000
00000000
,
10010000
00000000
10010000
00000000
,
10000000
00000000
00010000
00000000
,
00001000
00000000
00000001
00000000
,
00000001
00000000
00001000
00000000
,
00010000
00000000
10000000
00000000
,
10000000
00000000
01000000
00000000
,
00100000
00000000
00001000
00000000
,
00010000
00000000
00000100
00000000
,
00000010
00000000
00000001
00000000
,
00000100
00000000
00000000
00000000
,
00000010
00000000
00001100
00000000
,
00010000
00000000
00000000
00000000
,
00100000
00000000
11000000
00000000
,
00010000
00000000
00000000
00000000
,
00100000
00000000
00011000
00000000
,
00000010
00000000
00000000
00000000
,
00011000
00000000
00011000
00000000
,
01000000
00000000
00000000
00000000
,
00100000
00000000
11000000
00000000
,
00001000
00000000
00000000
00000000
,
00000010
00000000
00000101
00000000
,
00001000
00000000
00000000
00000000
,
00000010
00000000
00011000
00000000
,
00100000
00000000
00000000
00000000
,
00011000
00000000
00011000
00000000
,
00002000
00000000
00000000
00000000
,
00000000
00000000
00010000
00000000
,
00013000
00000000
00000000
00000000
;
