#TITLE:Dearest (Original Mix);
#SUBTITLE:;
#ARTIST:浜崎あゆみ;
#TITLETRANSLIT:;
#SUBTITLETRANSLIT:;
#ARTISTTRANSLIT:ayumi hamasaki;
#GENRE:;
#CREDIT:Chewphoria~;
#MENUCOLOR:;
#METERTYPE:DDR;
#BANNER:Dearest (Original Mix).png;
#BACKGROUND:Dearest (Original Mix)-bg.png;
#LYRICSPATH:;
#CDTITLE:;
#MUSIC:Dearest (Original Mix).mp3;
#OFFSET:-7.585;
#SAMPLESTART:69.970;
#SAMPLELENGTH:15.000;
#SELECTABLE:YES;
#LISTSORT:;
#BPMS:0.000=63.475;
#STOPS:;
#BGCHANGES:;
#ATTACKS:;

//---------------dance-single - ----------------
#NOTES:
     dance-single:
     :
     Beginner:
     1:
     0.040,0.053,0.017,0.000,0.000:
1000
0000
0000
0000
,
1000
0000
0000
0000
,
0001
0000
0000
0000
,
0001
0000
0000
0000
,
1001
0000
1000
0000
,
0000
0000
0001
0000
,
0000
0000
1000
0000
,
0000
0000
0001
0000
,
0000
0000
0010
0000
,
0000
0000
0100
0000
,
0000
0000
0010
0000
,
0000
0000
0110
0000
,
0000
0000
1000
0000
,
0000
0000
0100
0000
,
0000
0000
0001
0000
,
0000
0000
1000
0000
,
0000
0000
0100
0000
,
0100
0000
0100
0000
,
0100
0000
0001
0000
,
0010
0000
0010
0000
,
0010
0000
1000
0000
,
0000
0000
0001
0000
,
0000
0000
0010
0000
,
0000
0000
0001
0000
,
0000
0000
1000
0000
;

//---------------dance-single - ----------------
#NOTES:
     dance-single:
     :
     Easy:
     2:
     0.062,0.066,0.026,0.043,0.000: // measure 1
0002
0000
0000
0003
,  // measure 2
2000
0000
0000
3000
,  // measure 3
0020
0000
0000
0030
,  // measure 4
2000
0000
0000
3000
,  // measure 5
1001
0000
1000
0000
,  // measure 6
0100
0000
1000
0000
,  // measure 7
1000
0000
0001
0000
,  // measure 8
0100
0000
0001
0000
,  // measure 9
0001
0000
1000
0000
,  // measure 10
1000
0000
0001
0000
,  // measure 11
0001
0000
0010
0000
,  // measure 12
0010
0000
0010
0000
,  // measure 13
0010
0000
1001
0000
,  // measure 14
0000
0000
0100
0000
,  // measure 15
0000
0000
0110
0000
,  // measure 16
0000
0000
0010
0000
,  // measure 17
0000
0000
1000
0000
,  // measure 18
1000
0000
0001
0000
,  // measure 19
0001
0000
0100
0000
,  // measure 20
0100
0000
0010
0000
,  // measure 21
0010
0000
1000
0000
,  // measure 22
1000
0000
0001
0000
,  // measure 23
0001
0000
0010
0000
,  // measure 24
0010
0000
0100
0000
,  // measure 25
0100
0000
2000
0000
,  // measure 26
0000
0000
3000
0000
;

//---------------dance-single - ----------------
#NOTES:
     dance-single:
     :
     Medium:
     4:
     0.085,0.088,0.017,0.087,0.000: // measure 1
2000
0000
0000
3000
,  // measure 2
0020
0000
0000
0030
,  // measure 3
0002
0000
0000
0003
,  // measure 4
0200
0000
0000
0300
,  // measure 5
2000
0000
3001
0000
,  // measure 6
0101
0000
0100
0100
,  // measure 7
0010
0000
1000
0000
,  // measure 8
0001
0000
1000
1000
,  // measure 9
0100
0000
0010
0010
,  // measure 10
0001
0000
0100
0100
,  // measure 11
1000
0000
0010
0010
,  // measure 12
1000
0000
0100
0100
,  // measure 13
0001
0000
0002
0000
,  // measure 14
0000
0003
0020
0000
,  // measure 15
0000
0030
2000
0000
,  // measure 16
0000
3000
0020
0000
,  // measure 17
0000
0130
0100
0000
,  // measure 18
0100
0001
1000
0010
,  // measure 19
0010
0000
1000
0000
,  // measure 20
1000
0001
1000
0001
,  // measure 21
0100
0000
0110
0000
,  // measure 22
1000
0000
1000
0001
,  // measure 23
0100
0000
0100
0000
,  // measure 24
0010
0010
1000
0100
,  // measure 25
0001
0000
0200
0000
,  // measure 26
0000
0000
0310
0000
;

//---------------dance-single - ----------------
#NOTES:
     dance-single:
     :
     Hard:
     7:
     0.174,0.169,0.009,0.277,0.004: // measure 1
1000
2000
0000
0001
3002
0000
0103
0000
,  // measure 2
0200
0010
0320
0130
,  // measure 3
0010
0020
0000
0100
0230
0000
0302
0000
,  // measure 4
0103
2000
3001
0000
,  // measure 5
0110
0000
0000
0000
0010
0000
1000
0100
,  // measure 6
0001
0000
0010
0000
1000
0000
0100
0001
,  // measure 7
0010
0000
1000
0000
0010
0000
0001
0100
,  // measure 8
1000
0000
0010
0000
0001
0000
0100
1000
,  // measure 9
0010
0010
0100
0001
,  // measure 10
0010
0000
0000
0000
0100
0000
0000
0000
1000
0000
0000
0000
0010
0000
0000
0010
,  // measure 11
0200
0000
0300
0000
0100
0000
0100
0001
,  // measure 12
0100
0000
0100
0000
0100
0000
0100
1000
,  // measure 13
0100
0000
2000
0000
,  // measure 14
3020
0000
0230
0000
,  // measure 15
0302
0000
0000
0000
1003
0001
1000
0000
,  // measure 16
0000
0000
0100
0010
0200
0000
0001
0000
,  // measure 17
1000
0000
2300
0000
3002
0000
0000
0100
,  // measure 18
0203
0000
0320
0000
1030
0001
0010
0100
,  // measure 19
2000
0000
0000
3000
2000
0000
0000
3100
,  // measure 20
0020
0000
0032
0000
0103
0000
0010
0100
,  // measure 21
0020
0000
0000
0030
2000
0000
0000
3010
,  // measure 22
0200
0000
0001
0000
0301
0010
0100
1000
,  // measure 23
0100
0000
0000
0000
0200
0000
0000
1000
,  // measure 24
2300
0000
3020
0000
0130
0001
0100
1000
,  // measure 25
0200
0000
0320
0001
,  // measure 26
0032
0100
0203
0000
,  // measure 27
0300
0000
0000
0000
;
