#TITLE:Day 'N' Nite (Crookers Remix);
#SUBTITLE:;
#ARTIST:Kid Cudi;
#TITLETRANSLIT:;
#SUBTITLETRANSLIT:;
#ARTISTTRANSLIT:;
#GENRE:;
#CREDIT:Chewphoria~;
#MENUCOLOR:;
#METERTYPE:DDR X;
#BANNER:Day 'N' Nite (Crookers Remix).png;
#BACKGROUND:Day 'N' Nite (Crookers Remix)-bg.png;
#LYRICSPATH:;
#CDTITLE:;
#MUSIC:Day 'N' Nite (Crookers Remix).mp3;
#OFFSET:-1.917;
#SAMPLESTART:36.600;
#SAMPLELENGTH:15.000;
#SELECTABLE:YES;
#LISTSORT:;
#BPMS:0.000=130.020,76.000=65.020,92.000=130.020,186.500=65.020;
#STOPS:184.000=0.200
,184.500=0.200
,185.000=0.140
,185.250=0.140
,186.000=0.020
;
#BGCHANGES:-3.834=Day 'N' Nite (Crookers Remix).avi=1.000=1=0=0,
204.000=Day 'N' Nite (Crookers Remix)-bg.png=1.000=1=0=1,
99999=-nosongbg-=1.000=0=0=0 // don't automatically add -songbackground-
;
#ATTACKS:;

//---------------dance-single - Chewphoria~----------------
#NOTES:
     dance-single:
     Chewphoria~:
     Beginner:
     1:
     0.077,0.113,0.018,0.000,0.000: // measure 1
0000
0000
0000
0000
,  // measure 2
0000
0000
0000
0000
,  // measure 3
0000
0000
0000
0000
,  // measure 4
0010
0000
0000
0000
,  // measure 5
0001
0000
1000
0000
,  // measure 6
0001
0000
0000
0000
,  // measure 7
1000
0000
0000
0000
,  // measure 8
0100
0000
0000
0000
,  // measure 9
0001
0000
0000
0000
,  // measure 10
0010
0000
0000
0000
,  // measure 11
0010
0000
0010
0000
,  // measure 12
0010
0000
0000
0000
,  // measure 13
0100
0000
0000
0000
,  // measure 14
1000
0000
0000
0000
,  // measure 15
0001
0000
0000
0000
,  // measure 16
0010
0000
0000
0000
,  // measure 17
0001
0000
0000
0000
,  // measure 18
1000
0000
0000
0000
,  // measure 19
1000
0000
1000
0000
,  // measure 20
1001
0000
0000
0000
,  // measure 21
0010
0000
0000
0000
,  // measure 22
0100
0000
0000
0000
,  // measure 23
0010
0000
0000
0000
,  // measure 24
0010
0000
0000
0000
,  // measure 25
0001
0000
0000
0000
,  // measure 26
1000
0000
0000
0000
,  // measure 27
0010
0000
0000
0000
,  // measure 28
0001
0000
0001
0000
,  // measure 29
0001
0001
0000
0000
,  // measure 30
1000
0000
1000
0000
,  // measure 31
1000
1000
0000
0000
,  // measure 32
0010
0000
0000
0000
,  // measure 33
0001
0000
0000
0000
,  // measure 34
1000
0000
0000
0000
,  // measure 35
0001
0000
0000
0000
,  // measure 36
0010
0000
0000
0000
,  // measure 37
0100
0000
0000
0000
,  // measure 38
0010
0000
0000
0000
,  // measure 39
1001
0000
0000
0000
,  // measure 40
1000
1000
0000
0000
,  // measure 41
0001
0000
0000
0000
,  // measure 42
0010
0000
0000
0000
,  // measure 43
0010
0000
0000
0000
,  // measure 44
0001
0000
0000
0000
,  // measure 45
1000
0000
0000
0000
,  // measure 46
0100
0000
0000
0000
,  // measure 47
0010
0000
1000
0000
,  // measure 48
1000
0000
0000
0000
,  // measure 49
1000
0000
0000
0000
,  // measure 50
0001
0000
0000
0001
,  // measure 51
0001
0000
0000
0000
;

//---------------dance-single - Chewphoria~----------------
#NOTES:
     dance-single:
     Chewphoria~:
     Easy:
     3:
     0.149,0.158,0.009,0.063,0.000: // measure 1
0000
0000
0000
0000
,  // measure 2
0000
0000
0000
0000
,  // measure 3
0000
0000
0000
0000
,  // measure 4
0001
0001
0000
0000
,  // measure 5
0000
1000
0100
0000
,  // measure 6
1000
0100
0001
0010
,  // measure 7
0000
0010
0000
0010
,  // measure 8
0010
0010
0000
0010
,  // measure 9
0000
1000
0000
1000
,  // measure 10
0100
0001
0010
0100
,  // measure 11
0020
0030
0020
0030
,  // measure 12
0010
0010
0000
0000
,  // measure 13
1000
0100
0100
0010
,  // measure 14
0010
0001
0001
0000
,  // measure 15
0000
0001
1000
0001
,  // measure 16
1001
1000
0000
0000
,  // measure 17
0010
0100
0010
0000
,  // measure 18
0100
0100
0000
0100
,  // measure 19
0200
0300
0200
0300
,  // measure 20
0001
0000
0000
0000
,  // measure 21
0010
0000
0000
0000
,  // measure 22
1000
0000
0100
0100
,  // measure 23
0100
0000
0000
0000
,  // measure 24
0001
0000
1000
0000
,  // measure 25
0001
0001
0001
0000
,  // measure 26
1000
0000
0001
0000
,  // measure 27
1000
1000
1000
0000
,  // measure 28
0020
0000
0000
0000
,  // measure 29
0000
0000
0000
0000
,  // measure 30
0230
0000
0000
0000
,  // measure 31
0310
0010
0000
1000
,  // measure 32
0001
0001
0000
1000
,  // measure 33
0000
0010
0010
0100
,  // measure 34
0000
0100
0001
0000
,  // measure 35
0000
1000
0001
0000
,  // measure 36
1000
0010
0000
1000
,  // measure 37
0000
0001
0000
0001
,  // measure 38
1000
0001
0000
0010
,  // measure 39
0020
0000
0000
0000
,  // measure 40
0030
0010
0000
0010
,  // measure 41
0000
0001
0000
0001
,  // measure 42
1000
0001
0001
0000
,  // measure 43
0000
1000
0000
0010
,  // measure 44
0100
0010
0000
0000
,  // measure 45
0010
0010
0010
0000
,  // measure 46
1000
0001
1000
0000
,  // measure 47
0001
0000
0001
0000
0000
0010
0000
0000
,  // measure 48
0000
0000
0000
0000
0000
0001
0000
0000
,  // measure 49
0000
0000
0000
0000
0000
1000
0000
0000
,  // measure 50
0000
0000
0000
0000
0000
1000
0000
0001
,  // measure 51
1000
0000
0000
0000
;

//---------------dance-single - Chewphoria~----------------
#NOTES:
     dance-single:
     Chewphoria~:
     Hard:
     9:
     0.344,0.451,0.198,0.117,0.005: // measure 1
0000
0000
0000
0000
,  // measure 2
0000
0000
0000
0000
,  // measure 3
0000
0000
0000
0000
,  // measure 4
1000
1100
0000
1000
,  // measure 5
0000
0010
0001
0000
0001
0000
0010
0100
,  // measure 6
1000
0001
0100
0000
0110
0000
0000
0000
,  // measure 7
0000
1000
0100
0000
0100
1000
0010
0100
,  // measure 8
0001
0010
0100
0000
0000
0000
1001
0000
,  // measure 9
0000
1000
0100
1000
0010
0100
0001
0000
,  // measure 10
0010
0100
1000
0000
0001
1000
0010
0100
,  // measure 11
0001
0100
1000
0000
1000
0100
0001
1000
,  // measure 12
0001
1000
1100
0000
0000
0000
1001
0000
,  // measure 13
0000
1000
0001
0000
0001
1000
0010
0100
,  // measure 14
0001
0100
0100
0000
,  // measure 15
0000
0001
1000
0001
1000
0001
1000
0001
,  // measure 16
1000
0001
1001
0000
0000
0000
1001
0000
,  // measure 17
0000
1000
0100
0010
0001
1000
0100
0010
,  // measure 18
0001
0010
1000
0000
1000
0010
0001
1001
,  // measure 19
0001
0100
0010
0001
0010
0100
1000
1010
,  // measure 20
2200
0000
0000
3300
0001
0000
0000
0000
0202
0000
0000
0303
1000
0000
0000
0000
,  // measure 21
2000
0000
0100
0100
0100
0000
0100
0000
,  // measure 22
3002
0000
0010
0010
0010
0000
1000
0000
,  // measure 23
2003
0000
0010
0010
3000
0000
0000
0000
,  // measure 24
1000
0100
0010
0001
0010
0100
1000
0010
,  // measure 25
0110
0000
1001
0000
0110
0000
1001
0001
,  // measure 26
0010
0100
1000
0001
0010
0100
1000
0010
,  // measure 27
0100
0010
0100
0010
0110
0000
1000
0000
,  // measure 28
0000
1000
0000
0100
0000
0001
0000
0010
,  // measure 29
0000
1000
0000
0001
1000
0000
0000
0000
,  // measure 30
0000
0001
0000
0100
0000
1000
0000
0010
,  // measure 31
0000
0001
1000
0001
1000
0100
0010
0001
,  // measure 32
1001
1000
1000
1000
,  // measure 33
0001
0001
0001
0001
,  // measure 34
0010
0010
0010
0010
,  // measure 35
0100
0100
0100
0100
,  // measure 36
0010
0010
0010
0010
,  // measure 37
0001
0001
0001
0001
,  // measure 38
0100
0100
0100
0100
,  // measure 39
0020
0000
0000
0000
0000
0000
0000
0000
0200
0000
0000
0000
0000
0000
0000
0330
,  // measure 40
1001
0100
0000
0011
,  // measure 41
0100
0000
1000
0000
0010
0000
0100
0010
,  // measure 42
1000
0001
1000
0000
0200
0000
0300
0000
,  // measure 43
0001
1000
0010
0100
,  // measure 44
0001
1001
0000
1100
,  // measure 45
0001
0100
0010
0100
0001
0000
1000
0100
,  // measure 46
0010
0001
1000
0000
0002
0000
1003
0000
,  // measure 47
0020
0000
2030
0000
3100
0001
0010
0000
1000
0000
0100
0000
0000
0000
1000
0000
,  // measure 48
0000
1000
0000
0001
0000
0001
0000
0010
,  // measure 49
0000
0010
0000
0100
0000
0100
0000
0010
,  // measure 50
0000
0010
0000
1000
0000
1000
0000
0001
,  // measure 51
1001
0000
0000
0000
;

//---------------dance-single - Chewphoria~----------------
#NOTES:
     dance-single:
     Chewphoria~:
     Medium:
     6:
     0.210,0.248,0.063,0.108,0.000: // measure 1
0000
0000
0000
0000
,  // measure 2
0000
0000
0000
0000
,  // measure 3
0000
0000
0000
0000
,  // measure 4
1001
1001
0000
0000
,  // measure 5
1000
0100
0001
0010
,  // measure 6
1000
0100
0001
0000
,  // measure 7
0000
0001
1000
0010
,  // measure 8
0001
1000
0000
0000
,  // measure 9
0001
1000
0000
1000
,  // measure 10
0001
0000
1000
0010
,  // measure 11
0010
0010
0010
0000
0100
0100
0100
0000
,  // measure 12
0010
1000
0000
0000
,  // measure 13
0000
0001
0010
0100
,  // measure 14
1100
0101
1100
0000
,  // measure 15
0000
1000
0010
1000
,  // measure 16
0010
1010
0000
0001
,  // measure 17
0000
0001
0010
0000
,  // measure 18
0001
0010
1000
0100
,  // measure 19
0100
0100
0100
0100
,  // measure 20
0100
0000
0100
0000
,  // measure 21
0010
0000
0010
0000
,  // measure 22
1000
0000
1000
0000
,  // measure 23
0001
0000
0001
1000
0000
0000
0000
0000
,  // measure 24
1000
0010
0001
0100
,  // measure 25
2000
0000
0000
3000
,  // measure 26
1000
0100
0001
0010
,  // measure 27
2000
0000
0000
3000
,  // measure 28
1000
0000
1000
0000
,  // measure 29
1000
1000
1000
0000
,  // measure 30
0001
0000
0001
0000
,  // measure 31
0001
0001
0001
0001
,  // measure 32
2000
0100
0001
0010
,  // measure 33
3002
0010
1000
0100
,  // measure 34
2003
0100
0001
0010
,  // measure 35
3002
0103
2000
3100
,  // measure 36
1000
0100
0010
0001
,  // measure 37
0001
0010
0100
1000
,  // measure 38
0001
1000
0000
0001
,  // measure 39
0200
0000
0000
0320
,  // measure 40
1000
0030
0100
0000
0000
0000
1000
0000
,  // measure 41
0000
0010
0001
0100
,  // measure 42
1000
0010
0010
0000
,  // measure 43
0000
0010
0010
0100
,  // measure 44
0100
0001
0000
0000
,  // measure 45
1000
0001
1000
0000
,  // measure 46
1000
0100
0010
0000
,  // measure 47
0011
0001
0001
0000
0000
0100
0000
0200
,  // measure 48
0000
0300
0000
1000
0000
0001
0000
0002
,  // measure 49
0000
0003
0000
1000
0000
1000
0000
0002
,  // measure 50
0000
0003
0000
1000
0000
0010
0000
0010
,  // measure 51
0100
0000
0000
0000
;

//---------------dance-single - Chewphoria~----------------
#NOTES:
     dance-single:
     Chewphoria~:
     Challenge:
     13:
     0.626,0.888,0.442,0.144,0.424: // measure 1
0000
0000
0000
0000
,  // measure 2
0000
0000
0000
0000
,  // measure 3
0000
0000
0000
0000
,  // measure 4
1000
0010
0100
0000
0101
0000
0000
0000
0000
0000
0000
0000
1001
0000
0000
0000
,  // measure 5
0000
0000
0001
0000
0010
0000
0001
0010
0000
0000
0100
0000
1000
0000
0010
0000
,  // measure 6
0100
0001
0200
0000
0320
0000
0030
0000
,  // measure 7
0000
0000
1000
0000
0010
0000
1000
0100
0000
0000
0010
0000
0001
0000
0010
0000
,  // measure 8
0100
0100
2000
0000
0000
0000
3001
0000
,  // measure 9
1000
0000
0010
0000
0100
0000
0001
0100
0000
0100
0001
0000
0010
0000
0100
0000
,  // measure 10
1000
1000
1000
0000
0001
0001
0001
0100
,  // measure 11
0010
0000
1000
0000
0010
0000
2000
0000
0000
0000
0000
0000
3001
0000
0100
0000
0001
0000
0100
0000
0000
1000
0000
0000
,  // measure 12
0010
0100
0200
0000
0302
0000
0013
0000
,  // measure 13
0010
0000
0001
0000
0100
0000
0010
1000
0000
1000
0010
0000
1000
0000
0001
0000
,  // measure 14
0010
0100
0100
0010
0020
0000
0032
0000
,  // measure 15
0103
0000
0100
0000
0010
0000
0010
1000
0000
1000
0010
0000
0001
0000
0010
0000
,  // measure 16
0100
0100
0100
0010
0001
0100
0002
0000
,  // measure 17
0103
0000
0100
0000
0010
0000
1000
0010
0000
0010
1000
0000
0001
0000
0010
0000
,  // measure 18
1100
1100
1100
0000
0101
0101
0101
0010
,  // measure 19
1010
0001
0011
1000
1100
0001
0101
1000
,  // measure 20
0010
0000
0100
0000
0001
0000
0000
0000
0000
0000
0000
0000
0000
0000
0000
0000
0000
0000
0010
0000
0100
0000
0001
0100
0001
0000
1000
0000
1000
0000
1000
0000
,  // measure 21
1000
0000
0001
0000
0010
0000
0100
0000
2000
0000
0000
0000
3002
0000
0000
0003
0001
0000
0010
0000
0100
0000
1000
0100
1000
0000
0000
0000
1000
0000
0001
0000
,  // measure 22
0100
0000
0010
0000
0101
0000
0000
0000
0010
0000
0000
0000
1010
0000
0000
0000
1000
0000
0001
0000
0010
0000
0001
0010
0001
0000
0010
0000
0100
0000
1000
0000
,  // measure 23
0001
0001
1000
1000
0010
0000
0100
0101
0000
1010
0000
0011
1100
0000
0000
0000
,  // measure 24
1000
0100
1000
0000
0001
0100
0001
0000
1000
0010
1000
0000
0001
0010
0001
0000
,  // measure 25
1001
0000
0000
0000
0110
0000
0000
0000
1001
0000
0000
0000
0100
0110
0000
0000
,  // measure 26
0010
1000
0010
0000
0001
0100
0001
0000
1000
0010
1000
0000
0001
0010
0001
0000
,  // measure 27
1100
0000
0010
0000
0101
0000
0010
1000
0001
0000
0000
0000
0011
0000
0000
0000
,  // measure 28
0001
0010
0001
0000
1000
0100
1000
0000
0001
0100
0001
0000
1000
0010
1000
0000
,  // measure 29
1001
0101
1001
1010
,  // measure 30
1000
0001
1000
0000
0010
0100
0010
0000
0100
0001
0100
0000
0010
1000
0010
0000
,  // measure 31
1001
0010
1100
0010
0101
0100
1010
1000
,  // measure 32
0001
0010
0001
0010
0001
0100
0001
0100
,  // measure 33
0010
0100
0010
0100
0010
1000
0010
1000
,  // measure 34
0100
1000
0100
1000
0001
1000
0001
1000
,  // measure 35
0010
0100
0010
0100
0001
0100
0001
0100
,  // measure 36
0010
1000
0010
1000
0001
1000
0001
1000
,  // measure 37
0100
0010
0100
0010
0001
0010
0001
0010
,  // measure 38
0100
0010
0100
0010
1000
0010
1000
0010
,  // measure 39
1002
0100
0010
0000
2003
0100
0010
0000
,  // measure 40
3001
0000
0100
0000
0010
0000
1000
0000
0001
0000
1000
0001
1000
0000
0000
0000
,  // measure 41
0001
0000
0010
0000
0100
0000
1000
0100
1000
0000
0010
0000
0101
0000
0100
0000
,  // measure 42
0010
1000
0001
0010
1100
0001
0101
0000
,  // measure 43
0010
0000
1000
0000
0001
0000
0100
0001
0100
0000
0010
0000
1000
0000
0001
0000
,  // measure 44
0010
0000
0001
0000
0100
0000
1000
0000
0001
0100
0001
0000
0100
0000
0001
0000
,  // measure 45
0010
0000
1000
0000
0001
0000
0010
0000
0100
0000
1000
0000
0001
1000
0001
0000
,  // measure 46
1000
0000
0010
0000
0100
0000
0001
0000
0100
0001
0100
0000
1000
0010
1000
0000
,  // measure 47
1010
0000
0101
0000
1000
1100
0001
0000
0101
0000
0010
1000
0001
0000
0010
0000
,  // measure 48
1100
0000
0000
0000
0010
0000
0001
0000
1000
0000
0100
1000
0100
0000
0100
0000
0010
0000
1000
0000
0001
0000
0010
0000
0100
0000
1000
0000
0002
0000
0000
0003
,  // measure 49
1001
0000
0000
0000
1000
0000
0010
0000
0100
0000
0001
0100
0001
0000
0100
0000
0010
0000
1000
0000
0001
0010
0001
0010
0001
0000
0010
0000
0100
0000
1000
0000
,  // measure 50
1100
0000
0000
0000
1000
0000
0100
0000
0010
0000
0001
0100
0001
0000
0001
0000
0100
0000
0010
0000
1000
0001
1000
0000
0010
1000
0010
0000
1001
0000
0000
0000
,  // measure 51
0100
0101
0000
1100
0000
1010
2002
0000
3003
0000
0000
0000
0000
0000
0000
0000
;
